<?xml version="1.0" standalone="no"?>
<!DOCTYPE svg PUBLIC "-//W3C//DTD SVG 1.1//EN" "http://www.w3.org/Graphics/SVG/1.1/DTD/svg11.dtd" >
<svg xmlns="http://www.w3.org/2000/svg" xmlns:xlink="http://www.w3.org/1999/xlink" version="1.1">
<metadata>
Created by FontForge 20201107 at Thu Jul 26 19:04:47 2012
 By 
Copyright (c) 2012 by Jan Fromm. All rights reserved.
</metadata>
<defs>
<font id="RooneySans-Regular" horiz-adv-x="1024" >
  <font-face 
    font-family="RooneySans Regular"
    font-weight="340"
    font-stretch="normal"
    units-per-em="2048"
    panose-1="2 11 5 3 4 3 2 6 2 4"
    ascent="1536"
    descent="-512"
    x-height="1008"
    cap-height="1384"
    bbox="-65 -512 2645 2048"
    underline-thickness="144"
    underline-position="-440"
    unicode-range="U+000D-FB02"
  />
<missing-glyph 
d="M398 440q0 -65 -51 -65q-18 0 -31.5 4t-15.5 4q-16 0 -16 -21q0 -13 10 -18q19 -8 49 -8q107 0 107 104v246q0 33 -33 33h-92q-17 0 -17 -21q0 -20 17 -20h73v-238zM529 360q0 -20 25 -20q11 0 19 5.5t8 14.5v152h141q14 0 14 20q0 21 -14 21h-141v125h157q17 0 17 20
q0 21 -17 21h-174q-35 0 -35 -33v-326zM165 539q0 149 98.5 248.5t247.5 99.5t248.5 -99.5t99.5 -248.5t-99.5 -247.5t-248.5 -98.5t-247.5 98.5t-98.5 247.5z" />
    <glyph glyph-name="f_b" unicode="fb" horiz-adv-x="1818" 
d="M212 863h-110q-30 0 -48 19t-18 53t18 53.5t48 19.5h110v72q0 198 119.5 306.5t352.5 108.5q112 0 189.5 -21t104.5 -48q30 -30 30 -81v-330q0 -67 -7 -136h3q4 6 12 16t36 35t60.5 44.5t86 35.5t112.5 16q188 0 298.5 -127t110.5 -369q0 -259 -142.5 -404t-393.5 -145
q-119 0 -210 28.5t-120 57.5t-29 82v1175q-57 26 -175 26q-255 0 -255 -251v-91h168q30 0 48 -19.5t18 -53.5t-18 -53t-48 -19h-168v-787q0 -82 -91 -82q-92 0 -92 82v787zM1008 703v-530q7 -5 21.5 -13t66 -21t110.5 -13q149 0 238 100.5t89 285.5q0 363 -264 363
q-49 0 -93.5 -17.5t-74 -43t-51.5 -51t-32 -43.5z" />
    <glyph glyph-name="f_f" unicode="ff" horiz-adv-x="1286" 
d="M395 1008h449v106q0 97 31 174q-7 5 -22 12.5t-72.5 20t-128.5 12.5q-127 0 -192 -60t-65 -176v-89zM212 864h-110q-30 0 -48 19t-18 53t18 53t48 19h110v73q0 186 119.5 290.5t346.5 104.5q79 0 150 -15.5t102 -30.5l32 -16q92 78 234 78q109 0 153 -44q23 -23 23 -59
q0 -31 -17.5 -49t-43.5 -18q-12 0 -48.5 11.5t-74.5 11.5q-161 0 -161 -215v-122h177q30 0 48 -19.5t18 -52.5q0 -34 -18 -53t-48 -19h-177v-788q0 -82 -91 -82q-92 0 -92 82v788h-449v-788q0 -82 -91 -82q-92 0 -92 82v788z" />
    <glyph glyph-name="f_h" unicode="fh" horiz-adv-x="1851" 
d="M212 863h-110q-30 0 -48 19t-18 53t18 53.5t48 19.5h110v72q0 198 119.5 306.5t352.5 108.5q112 0 189.5 -21t104.5 -48q30 -30 30 -81v-330q0 -67 -7 -136h3q4 6 12 16t36 35t60.5 44.5t86 35.5t112.5 16q177 0 276.5 -106.5t99.5 -305.5v-538q0 -82 -91 -82
q-92 0 -92 82v512q0 287 -235 287q-49 0 -93.5 -17.5t-74 -43t-51.5 -51t-32 -43.5l-10 -17v-627q0 -82 -92 -82q-91 0 -91 82v1248q-57 26 -175 26q-255 0 -255 -251v-91h168q30 0 48 -19.5t18 -53.5t-18 -53t-48 -19h-168v-787q0 -82 -91 -82q-92 0 -92 82v787z" />
    <glyph glyph-name="f_i" unicode="fi" horiz-adv-x="1201" 
d="M212 864h-110q-30 0 -48 19t-18 53t18 53t48 19h110v87q0 187 118 292t349 105q97 0 166.5 -19.5t95.5 -46.5q22 -22 22 -55q0 -31 -18.5 -49.5t-45.5 -18.5q-16 0 -44.5 10.5t-79.5 21t-120 10.5q-260 0 -260 -234v-103h545q87 0 87 -88v-844q0 -82 -91 -82
q-92 0 -92 82v788h-449v-788q0 -82 -91 -82q-92 0 -92 82v788z" />
    <glyph glyph-name="f_dotlessi" unicode="f&#x131;" horiz-adv-x="1201" 
d="M212 864h-110q-30 0 -48 19t-18 53t18 53t48 19h110v106q0 180 94.5 279t258.5 99q109 0 153 -44q24 -24 24 -59q0 -31 -18 -49t-44 -18q-12 0 -48.5 11.5t-73.5 11.5q-163 0 -163 -215v-122h545q87 0 87 -88v-844q0 -82 -91 -82q-92 0 -92 82v788h-449v-788
q0 -82 -91 -82q-92 0 -92 82v788z" />
    <glyph glyph-name="f_j" unicode="fj" horiz-adv-x="1201" 
d="M212 864h-110q-30 0 -48 19t-18 53t18 53t48 19h110v87q0 187 118 292t349 105q97 0 166.5 -19.5t95.5 -46.5q22 -22 22 -55q0 -31 -18.5 -49.5t-45.5 -18.5q-16 0 -44.5 10.5t-79.5 21t-120 10.5q-260 0 -260 -234v-103h545q87 0 87 -88v-933q0 -251 -127 -378
q-89 -88 -186 -88q-38 0 -59.5 18.5t-21.5 50.5q0 38 38 62q48 29 76 53.5t52.5 64t34.5 96.5t10 140v858h-449v-788q0 -82 -91 -82q-92 0 -92 82v788z" />
    <glyph glyph-name="f_k" unicode="fk" horiz-adv-x="1657" 
d="M212 863h-110q-30 0 -48 19t-18 53t18 53.5t48 19.5h110v72q0 198 119.5 306.5t352.5 108.5q112 0 189.5 -21t104.5 -48q30 -30 30 -81v-764l393 377q35 33 39 36q28 23 57 23q35 0 62.5 -26t27.5 -58q0 -33 -37 -67l-339 -307l360 -409q30 -34 30 -65q0 -39 -31 -66.5
t-69 -27.5q-32 0 -56 24q-11 11 -31 34l-406 483v-456q0 -82 -92 -82q-91 0 -91 82v1248q-57 26 -175 26q-255 0 -255 -251v-91h168q30 0 48 -19.5t18 -53.5t-18 -53t-48 -19h-168v-787q0 -82 -91 -82q-92 0 -92 82v787z" />
    <glyph glyph-name="f_l" unicode="fl" horiz-adv-x="1224" 
d="M212 863h-110q-30 0 -48 19t-18 53t18 53.5t48 19.5h110v72q0 198 119.5 306.5t352.5 108.5q112 0 189.5 -21t104.5 -48q30 -30 30 -81v-1060q0 -81 21 -113.5t63 -32.5q13 0 31 2t26 2q23 0 38 -16t15 -41q0 -35 -23 -56q-38 -40 -130 -40q-109 0 -166.5 61.5
t-57.5 183.5v1089q-57 26 -175 26q-255 0 -255 -251v-91h168q30 0 48 -19.5t18 -53.5t-18 -53t-48 -19h-168v-787q0 -82 -91 -82q-92 0 -92 82v787z" />
    <glyph glyph-name="f_f_b" unicode="ffb" horiz-adv-x="2450" 
d="M395 1008h449v72q0 117 43 201q-8 6 -23.5 14.5t-76.5 23t-135 14.5q-257 0 -257 -236v-89zM212 864h-110q-30 0 -48 19t-18 53t18 53t48 19h110v73q0 187 118 291t348 104q85 0 162 -18.5t112 -37.5l34 -18q119 93 330 93q112 0 189.5 -21t104.5 -48q30 -30 30 -81v-330
q0 -67 -7 -136h3q4 6 12 16t36 35t60.5 44.5t86 35.5t112.5 16q188 0 298.5 -127t110.5 -369q0 -259 -142.5 -404t-393.5 -145q-119 0 -210 28.5t-120 57.5t-29 82v1175q-57 26 -175 26q-255 0 -255 -251v-91h169q30 0 47.5 -19.5t17.5 -52.5q0 -34 -17.5 -53t-47.5 -19
h-169v-788q0 -82 -91 -82q-92 0 -92 82v788h-449v-788q0 -82 -91 -82q-92 0 -92 82v788zM1640 703v-530q7 -5 21.5 -13t66 -21t110.5 -13q149 0 238 100.5t89 285.5q0 363 -264 363q-49 0 -93.5 -17.5t-74 -43t-51.5 -51t-32 -43.5z" />
    <glyph glyph-name="f_f_h" unicode="ffh" horiz-adv-x="2483" 
d="M395 1008h449v72q0 117 43 201q-8 6 -23.5 14.5t-76.5 23t-135 14.5q-257 0 -257 -236v-89zM212 864h-110q-30 0 -48 19t-18 53t18 53t48 19h110v73q0 187 118 291t348 104q85 0 162 -18.5t112 -37.5l34 -18q119 93 330 93q112 0 189.5 -21t104.5 -48q30 -30 30 -81v-330
q0 -67 -7 -136h3q4 6 12 16t36 35t60.5 44.5t86 35.5t112.5 16q177 0 276.5 -106.5t99.5 -305.5v-538q0 -82 -91 -82q-92 0 -92 82v512q0 287 -235 287q-49 0 -93.5 -17.5t-74 -43t-51.5 -51t-32 -43.5l-10 -17v-627q0 -82 -92 -82q-91 0 -91 82v1248q-57 26 -175 26
q-255 0 -255 -251v-91h169q30 0 47.5 -19.5t17.5 -52.5q0 -34 -17.5 -53t-47.5 -19h-169v-788q0 -82 -91 -82q-92 0 -92 82v788h-449v-788q0 -82 -91 -82q-92 0 -92 82v788z" />
    <glyph glyph-name="f_f_i" unicode="ffi" horiz-adv-x="1833" 
d="M395 1008h449v87q0 103 40 188q-7 6 -23 14t-75.5 22t-133.5 14q-127 0 -192 -60t-65 -176v-89zM212 864h-110q-30 0 -48 19t-18 53t18 53t48 19h110v73q0 186 119.5 290.5t346.5 104.5q85 0 161.5 -18t110.5 -36l34 -18q120 88 327 88q98 0 167 -19.5t95 -46.5
q23 -23 23 -55q0 -31 -18.5 -49.5t-46.5 -18.5q-16 0 -44.5 10.5t-79.5 21t-120 10.5q-260 0 -260 -234v-103h545q88 0 88 -87v-845q0 -82 -92 -82q-91 0 -91 82v788h-450v-788q0 -82 -91 -82q-92 0 -92 82v788h-449v-788q0 -82 -91 -82q-92 0 -92 82v788z" />
    <glyph glyph-name="f_f_j" unicode="ffj" horiz-adv-x="1833" 
d="M395 1008h449v87q0 103 40 188q-7 6 -23 14t-75.5 22t-133.5 14q-127 0 -192 -60t-65 -176v-89zM212 864h-110q-30 0 -48 19t-18 53t18 53t48 19h110v73q0 186 119.5 290.5t346.5 104.5q85 0 161.5 -18t110.5 -36l34 -18q120 88 327 88q98 0 167 -19.5t95 -46.5
q23 -23 23 -55q0 -31 -18.5 -49.5t-46.5 -18.5q-16 0 -44.5 10.5t-79.5 21t-120 10.5q-260 0 -260 -234v-103h545q88 0 88 -87v-934q0 -250 -128 -378q-43 -43 -93 -65.5t-93 -22.5q-38 0 -59.5 18.5t-21.5 50.5q0 38 38 62q48 29 76 53.5t52.5 64t35 96.5t10.5 140v858
h-450v-788q0 -82 -91 -82q-92 0 -92 82v788h-449v-788q0 -82 -91 -82q-92 0 -92 82v788z" />
    <glyph glyph-name="f_f_k" unicode="ffk" horiz-adv-x="2289" 
d="M395 1008h449v72q0 117 43 201q-8 6 -23.5 14.5t-76.5 23t-135 14.5q-257 0 -257 -236v-89zM212 864h-110q-30 0 -48 19t-18 53t18 53t48 19h110v73q0 187 118 291t348 104q85 0 162 -18.5t112 -37.5l34 -18q119 93 330 93q112 0 189.5 -21t104.5 -48q30 -30 30 -81v-764
l394 377q20 20 38 36q25 23 57 23q35 0 62.5 -26t27.5 -58q0 -34 -37 -67l-339 -307l360 -409q31 -35 31 -65q0 -39 -31.5 -66.5t-69.5 -27.5q-33 0 -56 24q-18 18 -31 34l-406 483v-456q0 -82 -92 -82q-91 0 -91 82v1248q-57 26 -175 26q-255 0 -255 -251v-91h169
q30 0 47.5 -19.5t17.5 -52.5q0 -34 -17.5 -53t-47.5 -19h-169v-788q0 -82 -91 -82q-92 0 -92 82v788h-449v-788q0 -82 -91 -82q-92 0 -92 82v788z" />
    <glyph glyph-name="f_f_l" unicode="ffl" horiz-adv-x="1856" 
d="M395 1008h449v72q0 117 43 201q-8 6 -23.5 14.5t-76.5 23t-135 14.5q-257 0 -257 -236v-89zM212 864h-110q-30 0 -48 19t-18 53t18 53t48 19h110v73q0 187 118 291t348 104q85 0 162 -18.5t112 -37.5l34 -18q119 93 330 93q112 0 189.5 -21t104.5 -48q30 -30 30 -81
v-1060q0 -81 21 -113.5t63 -32.5q13 0 31 2t26 2q23 0 38 -16t15 -41q0 -34 -22 -56q-40 -40 -131 -40q-109 0 -166.5 61.5t-57.5 183.5v1089q-57 26 -175 26q-255 0 -255 -251v-91h169q30 0 47.5 -19.5t17.5 -52.5q0 -34 -17.5 -53t-47.5 -19h-169v-788q0 -82 -91 -82
q-92 0 -92 82v788h-449v-788q0 -82 -91 -82q-92 0 -92 82v788z" />
    <glyph glyph-name="f_thorn" unicode="f&#xfe;" horiz-adv-x="1818" 
d="M212 863h-110q-30 0 -48 19t-18 53t18 53.5t48 19.5h110v72q0 198 119.5 306.5t352.5 108.5q112 0 189.5 -21t104.5 -48q30 -30 30 -81v-330q0 -67 -7 -136h3q4 6 12 16t36 35t60.5 44.5t86 35.5t112.5 16q188 0 298.5 -127t110.5 -369q0 -259 -142.5 -404t-393.5 -145
q-44 0 -88 6t-66 12l-22 6l-3 -1q3 -60 3 -128v-273q0 -39 -23.5 -60.5t-68.5 -21.5q-91 0 -91 82v1721q-57 26 -175 26q-255 0 -255 -251v-91h168q30 0 48 -19.5t18 -53.5t-18 -53t-48 -19h-168v-787q0 -82 -91 -82q-92 0 -92 82v787zM1008 703v-536q8 -5 22.5 -11.5
t66 -18t109.5 -11.5q149 0 238 100.5t89 285.5q0 363 -264 363q-49 0 -93.5 -17.5t-74 -43t-51.5 -51t-32 -43.5z" />
    <glyph glyph-name="f_t" unicode="ft" horiz-adv-x="1329" 
d="M212 864h-110q-30 0 -48 19t-18 53t18 53t48 19h110v106q0 180 92.5 279t253.5 99q107 0 149 -42q23 -23 23 -59q0 -31 -17.5 -49t-43.5 -18q-13 0 -47.5 10.5t-70.5 10.5q-157 0 -157 -215v-122h443l25 189q5 42 27 63.5t56 21.5q35 0 53.5 -19.5t18.5 -55.5v-199h211
q30 0 47.5 -19.5t17.5 -52.5q0 -34 -17.5 -53t-47.5 -19h-211v-577q0 -79 28.5 -113.5t89.5 -34.5q35 0 68.5 9t42.5 9q25 0 40 -16t15 -42q0 -34 -25 -57q-18 -19 -64 -35.5t-118 -16.5q-260 0 -260 251v623h-439v-788q0 -82 -91 -82q-92 0 -92 82v788z" />
    <glyph glyph-name="f_f_t" unicode="fft" horiz-adv-x="1961" 
d="M395 1008h449v106q0 97 31 174q-7 5 -22 12.5t-72.5 20t-128.5 12.5q-127 0 -192 -60t-65 -176v-89zM212 864h-110q-30 0 -48 19t-18 53t18 53t48 19h110v73q0 186 119.5 290.5t346.5 104.5q79 0 150 -15t102 -31l32 -15q87 77 228 77q107 0 149 -42q23 -23 23 -59
q0 -31 -17 -49t-43 -18q-13 0 -48 10.5t-71 10.5q-157 0 -157 -215v-122h443l25 189q5 42 27 63.5t56 21.5q35 0 54 -19.5t19 -55.5v-199h210q30 0 47.5 -19.5t17.5 -52.5q0 -34 -17.5 -53t-47.5 -19h-210v-577q0 -79 28 -113.5t89 -34.5q35 0 68.5 9t42.5 9q25 0 40 -16
t15 -42q0 -33 -24 -57q-52 -52 -183 -52q-259 0 -259 251v623h-440v-788q0 -82 -91 -82q-92 0 -92 82v788h-449v-788q0 -82 -91 -82q-92 0 -92 82v788z" />
    <glyph glyph-name="t_t" unicode="tt" horiz-adv-x="1344" 
d="M209 863h-111q-30 0 -48 19.5t-18 52.5q0 34 18 53.5t48 19.5h113l25 189q12 85 84 85q34 0 53 -19.5t19 -55.5v-199h460l25 189q10 85 83 85q34 0 53 -19.5t19 -55.5v-199h210q30 0 48 -19.5t18 -53.5t-18 -53t-48 -19h-210v-576q0 -79 28.5 -113.5t89.5 -34.5
q35 0 68 9t42 9q26 0 41 -16t15 -42q0 -32 -25 -57q-18 -19 -64 -35.5t-118 -16.5q-260 0 -260 251v623h-457v-577q0 -79 27 -113.5t81 -34.5q31 0 61 8t39 8q26 0 41 -16t15 -42q0 -33 -25 -58q-49 -49 -172 -49q-250 0 -250 251v622z" />
    <glyph glyph-name=".notdef" 
d="M398 440q0 -65 -51 -65q-18 0 -31.5 4t-15.5 4q-16 0 -16 -21q0 -13 10 -18q19 -8 49 -8q107 0 107 104v246q0 33 -33 33h-92q-17 0 -17 -21q0 -20 17 -20h73v-238zM529 360q0 -20 25 -20q11 0 19 5.5t8 14.5v152h141q14 0 14 20q0 21 -14 21h-141v125h157q17 0 17 20
q0 21 -17 21h-174q-35 0 -35 -33v-326zM165 539q0 149 98.5 248.5t247.5 99.5t248.5 -99.5t99.5 -248.5t-99.5 -247.5t-248.5 -98.5t-247.5 98.5t-98.5 247.5z" />
    <glyph glyph-name=".null" horiz-adv-x="0" 
 />
    <glyph glyph-name=".null" horiz-adv-x="0" 
 />
    <glyph glyph-name="nonmarkingreturn" horiz-adv-x="682" 
 />
    <glyph glyph-name="CR" unicode="&#xd;" horiz-adv-x="0" 
 />
    <glyph glyph-name="space" unicode=" " horiz-adv-x="545" 
 />
    <glyph glyph-name="exclam" unicode="!" horiz-adv-x="684" 
d="M259 456l-17 811q-2 71 -2 140q0 79 102 79q53 0 77.5 -21.5t24.5 -57.5q0 -69 -2 -140l-17 -811q0 -33 -21.5 -52t-61.5 -19q-39 0 -60.5 19t-22.5 52zM210 109q0 57 38 95t96 38t94 -36t36 -93q0 -56 -38 -94t-96 -38t-94 36t-36 92z" />
    <glyph glyph-name="quotedbl" unicode="&#x22;" horiz-adv-x="783" 
d="M155 1040l-20 343q0 9 -0.5 18.5t-1 15.5t-0.5 10q0 31 23.5 49.5t64.5 18.5q42 0 65.5 -18.5t23.5 -49.5q0 -9 -3 -44l-19 -343q-4 -56 -67 -56q-62 0 -66 56zM495 1040l-20 343q0 9 -0.5 18.5t-1 15.5t-0.5 10q0 31 23.5 49.5t65.5 18.5q41 0 64.5 -18.5t23.5 -49.5
q0 -9 -3 -44l-19 -343q-4 -56 -66 -56q-63 0 -67 56z" />
    <glyph glyph-name="numbersign" unicode="#" horiz-adv-x="1466" 
d="M309 360h-189q-62 0 -62 64t62 64h230l131 400h-188q-63 0 -63 64t63 64h230l105 322q18 58 72 58q32 0 53.5 -18.5t21.5 -48.5q0 -16 -7 -40l-89 -273h321l107 322q18 58 71 58q33 0 54.5 -18.5t21.5 -48.5q0 -16 -7 -40l-90 -273h188q64 0 64 -64q0 -31 -17 -47.5
t-47 -16.5h-230l-131 -400h189q63 0 63 -64q0 -31 -16.5 -47.5t-46.5 -16.5h-230l-105 -321q-19 -58 -71 -58q-33 0 -54.5 18t-21.5 48q0 19 6 41l90 272h-321l-107 -321q-19 -58 -70 -58q-33 0 -55 18t-22 48q0 20 7 41zM637 888l-131 -400h322l132 400h-323z" />
    <glyph glyph-name="dollar" unicode="$" horiz-adv-x="1079" 
d="M472 -222v225q-116 1 -198 26.5t-113 56.5q-29 29 -29 65q0 31 19.5 49.5t50.5 18.5q17 0 42.5 -10t52.5 -22.5t81 -22.5t120 -10q142 0 212 56t70 153q0 61 -36 106.5t-93 73.5t-126.5 52t-139 52.5t-126.5 65t-93 98t-36 144.5q0 138 87.5 231.5t254.5 117.5v227
q0 67 70 67t70 -67v-219q93 -2 163 -25.5t101 -53.5q28 -29 28 -64q0 -30 -19.5 -48t-50.5 -18q-21 0 -55 14.5t-87.5 29.5t-121.5 15q-130 0 -193 -49.5t-63 -135.5q0 -50 28 -88t73.5 -61.5t104 -47t119.5 -42.5t119.5 -50t104 -68t73.5 -98t28 -138q0 -148 -89.5 -246.5
t-262.5 -125.5v-234q0 -67 -70 -67t-70 67z" />
    <glyph glyph-name="percent" unicode="%" horiz-adv-x="1924" 
d="M526 90l755 1267q22 40 58 40q28 0 51 -19t23 -46q0 -17 -15 -43l-754 -1267q-24 -40 -59 -40q-28 0 -51 19t-23 46q0 17 15 43zM107 994q0 191 94.5 296t249.5 105q151 0 239.5 -98t88.5 -284q0 -191 -94.5 -296t-248.5 -105q-151 0 -240 98t-89 284zM270 1004
q0 -136 49.5 -202t125.5 -66q75 0 123.5 66t48.5 201q0 136 -49.5 202.5t-125.5 66.5q-75 0 -123.5 -66t-48.5 -202zM1144 365q0 191 94.5 296t249.5 105q151 0 239.5 -98t88.5 -284q0 -191 -94.5 -296t-248.5 -105q-151 0 -240 98t-89 284zM1307 375q0 -136 49.5 -202
t125.5 -66q75 0 123.5 66t48.5 201q0 136 -49.5 202.5t-125.5 66.5q-75 0 -123.5 -66t-48.5 -202z" />
    <glyph glyph-name="ampersand" unicode="&#x26;" horiz-adv-x="1605" 
d="M988 1008h376q30 0 48.5 -19.5t18.5 -53.5t-18 -53t-49 -19h-174q119 -128 119 -326q0 -148 -61 -268q85 -54 186 -108q3 -2 13.5 -7t13.5 -7t12 -7t12 -7t9.5 -7t9 -8.5t7 -9t6 -10.5t3 -11.5t1.5 -13.5q0 -35 -23.5 -60t-62.5 -25q-32 0 -98 30q-75 34 -197 114
q-68 -69 -181.5 -110t-263.5 -41q-265 0 -409.5 123t-144.5 320q0 80 27 153.5t65.5 121t77 83.5t65.5 52l27 16q-77 145 -77 269q0 176 103.5 276t291.5 100q91 0 152 -19.5t86 -44.5q26 -26 26 -63q0 -27 -18.5 -45t-46.5 -18q-13 0 -78.5 22t-131.5 22q-98 0 -151 -54
t-53 -157q0 -168 159 -369t441 -404q25 69 25 157q0 65 -12 116t-37 91.5t-50.5 68t-65.5 62.5q-25 21 -34.5 38.5t-8.5 41.5q-1 30 17 49t48 19zM718 131q193 0 288 93q-345 253 -523 504q-6 -4 -17 -11t-38.5 -33t-48.5 -56t-38 -79.5t-17 -103.5q0 -146 99.5 -230
t294.5 -84z" />
    <glyph glyph-name="quotesingle" unicode="'" horiz-adv-x="443" 
d="M155 1040l-20 343q0 9 -0.5 18.5t-1 15.5t-0.5 10q0 31 23.5 49.5t64.5 18.5q42 0 65.5 -18.5t23.5 -49.5q0 -9 -3 -44l-19 -343q-4 -56 -67 -56q-62 0 -66 56z" />
    <glyph glyph-name="parenleft" unicode="(" horiz-adv-x="650" 
d="M139 580q0 284 85 525.5t242 419.5q25 29 61 29q31 0 51 -18.5t20 -43.5q0 -20 -19 -49q-256 -369 -256 -863q0 -495 256 -864q19 -28 19 -48q0 -26 -20 -44.5t-51 -18.5q-36 0 -61 29q-157 179 -242 420t-85 526z" />
    <glyph glyph-name="parenright" unicode=")" horiz-adv-x="650" 
d="M327 580q0 494 -256 863q-19 26 -19 48q0 26 20 44.5t51 18.5q36 0 61 -29q157 -180 242 -420.5t85 -524.5t-85 -525t-242 -421q-25 -29 -61 -29q-31 0 -51 18.5t-20 44.5q0 22 19 48q256 369 256 864z" />
    <glyph glyph-name="asterisk" unicode="*" horiz-adv-x="854" 
d="M374 1047l-154 -99q-32 -21 -48 -21q-27 0 -46.5 24t-19.5 51q0 20 13.5 33t43.5 27l159 76l-165 84q-28 13 -39 25t-11 32q0 29 19.5 53t44.5 24q19 0 48 -20l155 -101l-12 184q-1 18 -1 25q0 23 19 36.5t47 13.5q29 0 48 -13.5t19 -36.5q0 -2 -0.5 -4t-1 -7.5
t-0.5 -13.5l-11 -184l153 98q31 22 49 22q26 0 45.5 -24.5t19.5 -51.5q0 -21 -13 -33.5t-43 -26.5l-160 -76l165 -83q28 -14 39.5 -25.5t11.5 -31.5q0 -29 -20 -53.5t-44 -24.5q-18 0 -49 21l-154 100l11 -183q0 -8 0.5 -13.5t1 -8t0.5 -4.5q0 -22 -19.5 -36t-47.5 -14
t-47 14t-19 36q0 8 1 26z" />
    <glyph glyph-name="plus" unicode="+" horiz-adv-x="1168" 
d="M506 511h-289q-31 0 -49 20t-18 52t18 52t49 20h289v291q0 39 20.5 59.5t57.5 20.5t57.5 -20.5t20.5 -59.5v-291h288q31 0 49.5 -19.5t18.5 -52.5t-18.5 -52.5t-49.5 -19.5h-288v-292q0 -39 -20.5 -59.5t-57.5 -20.5t-57.5 20.5t-20.5 59.5v292z" />
    <glyph glyph-name="comma" unicode="," horiz-adv-x="572" 
d="M154 112q0 58 38.5 96.5t96.5 38.5q60 0 94.5 -40.5t34.5 -110.5q0 -145 -116 -295q-87 -117 -158 -117q-28 0 -44 14.5t-16 38.5q0 17 15 37.5t35.5 42t47 69t44.5 109.5q-30 12 -51 42t-21 75z" />
    <glyph glyph-name="hyphen" unicode="-" horiz-adv-x="961" 
d="M226 612h509q67 0 67 -73q0 -74 -67 -74h-509q-31 0 -49 19t-18 55q0 35 18 54t49 19z" />
    <glyph glyph-name="period" unicode="." horiz-adv-x="572" 
d="M154 112q0 58 38.5 96.5t96.5 38.5q57 0 93 -36.5t36 -94.5t-38 -96.5t-96 -38.5t-94 36.5t-36 94.5z" />
    <glyph glyph-name="slash" unicode="/" horiz-adv-x="843" 
d="M14 -215l599 1644q12 32 29 46.5t46 14.5q35 0 62.5 -21t27.5 -52q0 -16 -13 -49l-599 -1643q-22 -62 -74 -62q-35 0 -62.5 21.5t-27.5 52.5q0 17 12 48z" />
    <glyph glyph-name="zero" unicode="0" horiz-adv-x="1266" 
d="M104 512q0 263 147 415t394 152q230 0 373.5 -146t143.5 -384q0 -263 -147 -415.5t-395 -152.5q-229 0 -372.5 146.5t-143.5 384.5zM289 532q0 -185 97.5 -293.5t248.5 -108.5q154 0 247.5 105t93.5 293q0 185 -97 293.5t-248 108.5q-153 0 -247.5 -105t-94.5 -293z" />
    <glyph glyph-name="one" unicode="1" horiz-adv-x="685" 
d="M309 864l-153 -55q-42 -14 -62 -14q-27 0 -45 19t-18 46q0 28 19 46q28 28 173 100q76 37 114.5 51t68.5 14q40 0 63 -24t23 -68v-903q0 -82 -91 -82q-92 0 -92 82v788z" />
    <glyph glyph-name="two" unicode="2" horiz-adv-x="937" 
d="M283 156h509q31 0 50 -20.5t19 -56.5q0 -37 -19 -58t-50 -21h-623q-52 0 -81.5 27t-29.5 73q0 31 15 56t52 56l202 173q62 53 93 80.5t76 73t66.5 77t38 72t16.5 78.5q0 76 -54 120t-159 44q-57 0 -107.5 -13t-84 -26t-49.5 -13q-28 0 -44.5 16.5t-16.5 44.5q0 32 22 54
q32 32 118 59t195 27q181 0 275.5 -80t94.5 -215q0 -56 -20.5 -111t-48.5 -97.5t-82.5 -97.5t-95 -90t-114.5 -96z" />
    <glyph glyph-name="three" unicode="3" horiz-adv-x="959" 
d="M388 -193q129 0 207 74t78 191q0 129 -91.5 194t-311.5 65q-31 0 -46 13q-19 19 -19 59.5t19 59.5q13 13 46 13q184 0 271 67.5t87 185.5q0 202 -234 202q-56 0 -106 -13t-84 -26t-51 -13q-27 0 -43.5 16.5t-16.5 44.5q0 31 22 53q32 32 117.5 59t195.5 27
q188 0 287.5 -88.5t99.5 -241.5q0 -110 -66 -197t-171 -128v-2q135 -28 209.5 -115.5t74.5 -221.5q0 -184 -131 -303t-354 -119q-110 0 -184 22.5t-102 49.5q-26 28 -26 61q0 30 18.5 48.5t46.5 18.5q16 0 47 -14t85 -28t126 -14z" />
    <glyph glyph-name="four" unicode="4" horiz-adv-x="1073" 
d="M649 81h-500q-54 0 -82 26.5t-28 74.5q0 46 37 100l479 683q42 61 78.5 84t85.5 23q108 0 108 -106v-734h159q32 0 50 -19.5t18 -55.5t-18 -56t-50 -20h-159v-325q0 -82 -90 -82q-88 0 -88 82v325zM649 232v618l-428 -618h428z" />
    <glyph glyph-name="five" unicode="5" horiz-adv-x="977" 
d="M320 904l-17 -366q156 -4 271 -38t183 -93t100.5 -134t32.5 -168q0 -201 -131.5 -321.5t-369.5 -120.5q-111 0 -185 22.5t-101 49.5q-26 26 -26 61q0 30 18 48.5t47 18.5q16 0 47 -14t85 -28t126 -14q142 0 222 75.5t80 203.5q0 137 -116 218t-363 81q-85 0 -80 82
l25 505q3 88 95 88h519q31 0 50.5 -20.5t19.5 -57.5t-19.5 -57.5t-50.5 -20.5h-462z" />
    <glyph glyph-name="six" unicode="6" horiz-adv-x="1111" 
d="M109 581q0 201 47 358t131 256.5t197 151t248 51.5q136 0 179 -43q19 -19 19 -50q0 -32 -18.5 -49.5t-47.5 -17.5q-10 0 -51.5 6t-88.5 6q-170 0 -281 -124.5t-140 -362.5q4 4 12.5 10t37 21.5t60.5 27.5t83 21.5t105 9.5q192 0 302 -109t110 -298q0 -213 -122 -339
t-325 -126q-218 0 -337.5 147.5t-119.5 452.5zM559 707q-46 0 -90.5 -10.5t-75 -25.5t-54 -29.5t-35.5 -25.5l-11 -10q0 -175 36 -283t97 -151.5t153 -43.5q113 0 181 77.5t68 220.5q0 133 -71.5 207t-197.5 74z" />
    <glyph glyph-name="seven" unicode="7" horiz-adv-x="925" 
d="M649 903h-551q-31 0 -50 20.5t-19 57.5q0 38 19 58.5t50 20.5h665q52 0 77.5 -23t25.5 -64q0 -43 -27 -94q-286 -565 -439 -1117q-14 -47 -34 -67.5t-56 -20.5q-38 0 -61.5 20.5t-23.5 57.5q0 20 11 62q115 451 413 1089z" />
    <glyph glyph-name="eight" unicode="8" horiz-adv-x="1085" 
d="M97 334q0 68 22 126.5t64.5 105t88 80.5t109.5 71q-248 129 -248 331q0 153 113 251.5t311 98.5q181 0 286.5 -90t105.5 -222q0 -63 -19 -115.5t-56 -94t-77 -72t-97 -62.5q58 -30 106.5 -65.5t91 -81.5t66.5 -103t24 -120q0 -179 -120 -285t-342 -106q-201 0 -315 99
t-114 254zM278 355q0 -106 69 -168t198 -62q125 0 192 61t67 165q0 53 -21 97.5t-61 80.5t-85.5 63t-108.5 56q-124 -67 -187 -133t-63 -160zM317 1067q0 -47 16.5 -85t51 -68.5t73 -53.5t96.5 -50q107 60 160.5 117t53.5 136q0 84 -61 137t-169 53q-104 0 -162.5 -51.5
t-58.5 -134.5z" />
    <glyph glyph-name="nine" unicode="9" horiz-adv-x="1112" 
d="M284 634q0 -133 71.5 -206.5t197.5 -73.5q46 0 90 10.5t74.5 25t54 29t34.5 25.5l12 10q1 111 -13.5 195.5t-39.5 137.5t-63 86t-79 46t-91 13q-113 0 -180.5 -77.5t-67.5 -220.5zM98 613q0 215 122.5 340.5t325.5 125.5q218 0 337 -147t119 -452q0 -202 -47.5 -358.5
t-135.5 -256.5t-209 -151t-271 -51q-138 0 -178 42q-21 19 -21 50q0 32 19 49.5t48 17.5q10 0 51.5 -5.5t88.5 -5.5q88 0 159.5 24.5t122.5 67.5t88.5 105t59 133t32.5 157q-4 -4 -12.5 -10t-36.5 -21.5t-60 -27.5t-83.5 -22t-105.5 -10q-193 0 -303 108.5t-110 297.5z" />
    <glyph glyph-name="colon" unicode=":" horiz-adv-x="572" 
d="M154 112q0 58 38.5 96.5t96.5 38.5q57 0 93 -36.5t36 -94.5t-38 -96.5t-96 -38.5t-94 36.5t-36 94.5zM154 725q0 57 38.5 95.5t96.5 38.5q57 0 93 -36.5t36 -93.5q0 -58 -38 -96.5t-96 -38.5t-94 36.5t-36 94.5z" />
    <glyph glyph-name="semicolon" unicode=";" horiz-adv-x="572" 
d="M154 725q0 57 38.5 95.5t96.5 38.5q57 0 93 -36.5t36 -93.5q0 -58 -38 -96.5t-96 -38.5t-94 36.5t-36 94.5zM154 112q0 58 38.5 96.5t96.5 38.5q60 0 94.5 -40.5t34.5 -110.5q0 -145 -116 -295q-87 -117 -159 -117q-28 0 -43.5 14.5t-15.5 38.5q0 17 15 37.5t35.5 42
t47 69t44.5 109.5q-30 12 -51 42t-21 75z" />
    <glyph glyph-name="less" unicode="&#x3c;" horiz-adv-x="1168" 
d="M420 588l446 -295q40 -26 40 -63q0 -33 -24 -59.5t-58 -26.5q-22 0 -52 19l-517 337q-49 32 -49 82q0 49 49 81l521 340q34 21 55 21q31 0 54 -24.5t23 -54.5q0 -38 -38 -63z" />
    <glyph glyph-name="equal" unicode="=" horiz-adv-x="1168" 
d="M236 467h694q31 0 49.5 -19.5t18.5 -51.5q0 -33 -18.5 -52.5t-49.5 -19.5h-693q-31 0 -49 19.5t-18 52.5q0 32 18 51.5t48 19.5zM237 839h693q31 0 49.5 -19.5t18.5 -51.5q0 -33 -18.5 -52.5t-49.5 -19.5h-693q-31 0 -49 19.5t-18 52.5q0 32 18 51.5t49 19.5z" />
    <glyph glyph-name="greater" unicode="&#x3e;" horiz-adv-x="1168" 
d="M748 579l-446 295q-40 26 -40 63q0 33 24 59.5t58 26.5q22 0 52 -19l517 -337q49 -32 49 -82q0 -49 -49 -82l-521 -339q-34 -21 -55 -21q-31 0 -54 24.5t-23 54.5q0 38 38 63z" />
    <glyph glyph-name="question" unicode="?" horiz-adv-x="813" 
d="M240 572q0 78 33.5 145t80.5 115t94.5 93.5t81 102t33.5 119.5q0 92 -60 145t-175 53q-57 0 -98.5 -10.5t-66 -20.5t-40.5 -10q-27 0 -43.5 16t-16.5 43q0 33 23 55q30 31 103.5 54t173.5 23q192 0 291.5 -87.5t99.5 -239.5q0 -83 -34.5 -153.5t-83 -120t-97.5 -95.5
t-83.5 -102t-34.5 -118q0 -46 10 -82.5t10 -45.5q0 -30 -22.5 -48t-64.5 -18q-51 0 -82.5 45.5t-31.5 141.5zM229 109q0 57 38.5 95t95.5 38q58 0 94 -36t36 -93q0 -56 -38 -94t-96 -38q-57 0 -93.5 36t-36.5 92z" />
    <glyph glyph-name="at" unicode="@" horiz-adv-x="2112" 
d="M1458 881l-39 -450q-7 -90 19.5 -127t89.5 -37q39 0 75.5 15.5t73.5 52.5t64 92.5t44 142.5t17 195q0 284 -154.5 433t-457.5 149q-191 0 -353.5 -63.5t-275.5 -175.5t-176.5 -270.5t-63.5 -344.5q0 -337 176.5 -509.5t528.5 -172.5q116 0 206 16.5t137.5 33t61.5 16.5
q27 0 43 -16.5t16 -42.5q0 -31 -22 -53q-36 -37 -158.5 -69.5t-300.5 -32.5q-419 0 -642 212.5t-223 597.5q0 223 76 412.5t213.5 324t336 210t435.5 75.5q372 0 570.5 -185.5t198.5 -516.5q0 -158 -35.5 -285t-98.5 -209.5t-148 -126t-185 -43.5q-186 0 -231 148l-4 2
q-4 -6 -11.5 -16t-35 -36t-59 -46t-82.5 -36t-107 -16q-156 0 -248.5 96t-92.5 263q0 246 144.5 393t378.5 147q186 0 263 -56q23 -18 30.5 -38t5.5 -53zM1247 425l35 425q-5 4 -15.5 9.5t-50 15t-87.5 9.5q-137 0 -225 -100.5t-88 -275.5q0 -117 51 -175t144 -58
q45 0 85.5 15.5t66.5 37.5t46 44t29 38z" />
    <glyph glyph-name="A" unicode="A" horiz-adv-x="1243" 
d="M341 366l-93 -278q-19 -59 -37 -77q-20 -20 -58 -20t-68 22t-30 59q0 21 17 67l403 1129q20 56 47 82q34 34 99 34t99 -34q28 -28 47 -82l405 -1127q17 -46 17 -65q0 -39 -32.5 -62t-71.5 -23q-37 0 -59 22q-17 16 -36 72l-97 281h-552zM389 517h454l-165 474l-64 200h-4
q-26 -92 -62 -200z" />
    <glyph glyph-name="B" unicode="B" horiz-adv-x="1208" 
d="M379 152h175q180 0 266.5 66.5t86.5 180.5q0 238 -353 238h-175v-485zM379 787h166q158 0 235 60.5t77 164.5q0 214 -305 214h-173v-439zM193 90v1198q0 43 23.5 66.5t66.5 23.5h281q248 0 366 -91.5t118 -252.5q0 -111 -61 -191t-163 -115v-2q130 -23 202.5 -104
t72.5 -207q0 -186 -142 -300.5t-417 -114.5h-257q-43 0 -66.5 23.5t-23.5 66.5z" />
    <glyph glyph-name="C" unicode="C" horiz-adv-x="1193" 
d="M106 647q0 174 48.5 315.5t135.5 236t208 145.5t264 51q114 0 197 -30.5t117 -64.5q29 -29 29 -68q0 -32 -19.5 -51.5t-51.5 -19.5q-17 0 -43 12t-53 26.5t-79.5 26.5t-116.5 12q-93 0 -173 -37t-140.5 -106.5t-95 -178.5t-34.5 -245q0 -248 126.5 -388t331.5 -140
q78 0 138.5 18.5t97 36.5t54.5 18q27 0 44.5 -18.5t17.5 -46.5q0 -35 -28 -63q-40 -39 -134.5 -71.5t-222.5 -32.5q-276 0 -447 179.5t-171 483.5z" />
    <glyph glyph-name="D" unicode="D" horiz-adv-x="1394" 
d="M193 90v1198q0 43 23.5 66.5t66.5 23.5h321q335 0 511.5 -171t176.5 -488q0 -337 -190 -528t-524 -191h-295q-43 0 -66.5 23.5t-23.5 66.5zM381 154h210q237 0 373 142.5t136 401.5q0 261 -129.5 393.5t-379.5 132.5h-210v-1070z" />
    <glyph glyph-name="E" unicode="E" horiz-adv-x="1070" 
d="M381 631v-476h529q33 0 52 -20t19 -58q0 -37 -19 -57t-52 -20h-627q-43 0 -66.5 23.5t-23.5 66.5v1198q0 43 23.5 66.5t66.5 23.5h623q33 0 52 -20t19 -56q0 -38 -18.5 -58.5t-52.5 -20.5h-525v-438h453q33 0 51.5 -20t18.5 -57t-18.5 -57t-51.5 -20h-453z" />
    <glyph glyph-name="F" unicode="F" horiz-adv-x="1011" 
d="M381 609v-532q0 -83 -94 -83t-94 83v1211q0 43 23.5 66.5t66.5 23.5h614q33 0 51.5 -20t18.5 -56q0 -38 -18.5 -58.5t-50.5 -20.5h-517v-460h434q32 0 50.5 -20t18.5 -57t-18.5 -57t-50.5 -20h-434z" />
    <glyph glyph-name="G" unicode="G" horiz-adv-x="1375" 
d="M1040 571h-241q-33 0 -51 20t-18 57q0 35 18.5 55t50.5 20h339q40 0 62.5 -22.5t22.5 -62.5v-447q0 -76 -49 -115q-50 -38 -153 -66.5t-247 -28.5q-310 0 -489 179t-179 498q0 342 194 539.5t520 197.5q137 0 232.5 -34t132.5 -70q29 -30 29 -68q0 -31 -20 -50.5
t-52 -19.5q-17 0 -46 13.5t-60.5 29.5t-96 29.5t-144.5 13.5q-225 0 -360.5 -148t-135.5 -410q0 -263 136 -404t369 -141q72 0 131 10.5t82 21.5l23 10v393z" />
    <glyph glyph-name="H" unicode="H" horiz-adv-x="1430" 
d="M381 631v-554q0 -83 -94 -83t-94 83v1224q0 83 94 83t94 -83v-515h668v515q0 83 94 83t94 -83v-1224q0 -83 -94 -83t-94 83v554h-668z" />
    <glyph glyph-name="I" unicode="I" horiz-adv-x="574" 
d="M193 77v1224q0 83 94 83t94 -83v-1224q0 -83 -94 -83t-94 83z" />
    <glyph glyph-name="J" unicode="J" horiz-adv-x="582" 
d="M201 108v1193q0 83 94 83t94 -83v-1135q0 -173 -30.5 -274t-100.5 -171q-52 -52 -108.5 -79t-104.5 -27q-40 0 -60.5 19.5t-20.5 50.5q0 44 40 66q39 22 64.5 39t53 46.5t43 64t26 87t10.5 120.5z" />
    <glyph glyph-name="K" unicode="K" horiz-adv-x="1153" 
d="M381 739l531 588q14 16 30 32q28 28 61 28q39 0 69 -26.5t30 -62.5q0 -33 -25 -58l-496 -519l493 -561q37 -43 37 -73q0 -38 -32.5 -67t-71.5 -29q-35 0 -59 24q-7 7 -28 31l-539 623v-592q0 -83 -94 -83t-94 83v1224q0 83 94 83t94 -83v-562z" />
    <glyph glyph-name="L" unicode="L" horiz-adv-x="991" 
d="M381 157h512q34 0 52.5 -20.5t18.5 -58.5t-19 -58t-52 -20h-610q-43 0 -66.5 23.5t-23.5 66.5v1211q0 83 94 83t94 -83v-1144z" />
    <glyph glyph-name="M" unicode="M" horiz-adv-x="1796" 
d="M138 117l117 1135q7 64 40 97q35 35 106 35q64 0 100 -30t57 -95l287 -870q15 -45 29 -92.5t20 -72.5l7 -25h4q21 88 55 190l287 868q22 67 57 97t98 30q65 0 100 -33q32 -33 38 -99l118 -1136q4 -42 4 -48q0 -34 -28 -55.5t-70 -21.5q-46 0 -69 24q-19 19 -25 88
l-77 856q-4 49 -6 102.5t-2 82.5v28h-4l-350 -1062q-19 -60 -45 -86q-30 -30 -88 -30q-60 0 -90 30q-25 25 -45 86l-351 1062h-4q-2 -101 -11 -211l-78 -858q-6 -68 -26 -88q-23 -24 -66 -24q-40 0 -67 21t-27 55q0 12 5 50z" />
    <glyph glyph-name="N" unicode="N" horiz-adv-x="1490" 
d="M193 73v1179q0 132 133 132q55 0 87 -25t67 -80l536 -843q28 -45 57.5 -97t44.5 -81l16 -29l4 2q-11 121 -12 242l-5 832q0 37 22.5 58t65.5 21q88 0 88 -79v-1178q0 -133 -133 -133q-55 0 -87 25t-67 80l-536 843q-28 45 -57.5 97t-44.5 81l-16 29l-4 -2
q11 -121 12 -242l5 -832q0 -79 -88 -79t-88 79z" />
    <glyph glyph-name="O" unicode="O" horiz-adv-x="1488" 
d="M106 671q0 337 179.5 532t470.5 195q282 0 454 -184.5t172 -505.5q0 -337 -180 -532t-470 -195q-282 0 -454 184.5t-172 505.5zM299 691q0 -258 126.5 -405.5t320.5 -147.5q193 0 318 146t125 403q0 130 -35 236t-95.5 175t-141.5 106t-175 37q-193 0 -318 -146
t-125 -404z" />
    <glyph glyph-name="P" unicode="P" horiz-adv-x="1114" 
d="M380 540v-463q0 -83 -94 -83q-93 0 -93 83v1211q0 43 23.5 66.5t66.5 23.5h274q243 0 365.5 -105t122.5 -293q0 -200 -134 -320t-378 -120h-153zM380 692h167q148 0 226.5 72t78.5 199q0 262 -307 262h-165v-533z" />
    <glyph glyph-name="Q" unicode="Q" horiz-adv-x="1489" 
d="M106 671q0 337 180 532t471 195q281 0 453 -184.5t172 -505.5q0 -286 -132 -472t-355 -236q141 -221 481 -250q80 -7 80 -72q0 -43 -35 -68.5t-108 -25.5q-103 0 -215.5 45t-217 138t-158.5 215q-182 2 -320.5 83.5t-217 238t-78.5 367.5zM299 690q0 -130 35 -236
t95.5 -175t141.5 -106t175 -37q193 0 318 146t125 405q0 130 -35 236t-95.5 175t-141.5 106t-175 37q-193 0 -318 -146t-125 -405z" />
    <glyph glyph-name="R" unicode="R" horiz-adv-x="1171" 
d="M379 594v-517q0 -83 -93 -83t-93 83v1211q0 43 23.5 66.5t66.5 23.5h279q251 0 376 -100t125 -270q0 -148 -89.5 -250.5t-239.5 -133.5l317 -475q26 -40 26 -65q0 -38 -33 -65.5t-73 -27.5q-35 0 -59 24q-14 14 -33 44l-341 535h-159zM379 747h172q159 0 239 66t80 178
q0 234 -321 234h-170v-478z" />
    <glyph glyph-name="S" unicode="S" horiz-adv-x="1095" 
d="M132 1013q0 171 122.5 277.5t344.5 106.5q108 0 187 -25t110 -56q29 -29 29 -66q0 -31 -20 -50t-52 -19q-21 0 -54 15.5t-87.5 30.5t-128.5 15q-128 0 -195 -56.5t-67 -150.5q0 -51 22.5 -90.5t60.5 -65t87 -46.5t103.5 -40t109 -40t103.5 -52t87 -70.5t60.5 -101
t22.5 -138.5q0 -185 -128 -297t-365 -112q-124 0 -210.5 26.5t-119.5 59.5q-29 29 -29 67q0 31 19.5 50.5t51.5 19.5q17 0 42.5 -10.5t52 -23.5t82.5 -23.5t127 -10.5q139 0 213.5 63.5t74.5 168.5q0 55 -22.5 97.5t-60.5 70.5t-87 50.5t-103.5 42t-109 40t-103.5 50t-87 67
t-60.5 95.5t-22.5 131z" />
    <glyph glyph-name="T" unicode="T" horiz-adv-x="1115" 
d="M464 1221h-366q-34 0 -52.5 20.5t-18.5 58.5t19 58t52 20h919q33 0 52 -20t19 -58t-18.5 -58.5t-52.5 -20.5h-366v-1144q0 -83 -93 -83q-94 0 -94 83v1144z" />
    <glyph glyph-name="U" unicode="U" horiz-adv-x="1421" 
d="M180 539v762q0 83 94 83t94 -83v-734q0 -218 93.5 -323.5t255.5 -105.5q152 0 244 101t92 301v761q0 83 93 83q94 0 94 -83v-735q0 -289 -142 -437t-395 -148t-388 140.5t-135 417.5z" />
    <glyph glyph-name="V" unicode="V" horiz-adv-x="1207" 
d="M460 106l-389 1127q-16 47 -16 66q0 40 32 64t71 24q37 0 59 -22q13 -13 33 -72l300 -899q16 -48 30.5 -98t21.5 -76l7 -27h4q23 92 58 201l291 899q18 57 35 74q20 20 56 20q37 0 68 -22t31 -59q0 -19 -16 -66l-392 -1134q-18 -53 -44 -79q-33 -33 -97 -33q-65 0 -98 33
q-27 27 -45 79z" />
    <glyph glyph-name="W" unicode="W" horiz-adv-x="1903" 
d="M388 115l-301 1126q-12 46 -12 61q0 39 31.5 62t71.5 23q38 0 60 -22q15 -15 31 -76l230 -897q12 -49 22.5 -99.5t14.5 -76.5l4 -26h4q15 88 45 202l231 882q16 63 49 88t88 25q56 0 88.5 -25t48.5 -88l230 -878q12 -48 23.5 -99.5t16.5 -78.5l5 -28h4q18 100 44 204
l221 894q15 62 30 77q22 22 62 22q38 0 68 -21.5t30 -57.5q0 -12 -13 -60l-302 -1133q-16 -59 -41 -86q-35 -35 -105 -35q-66 0 -101 35q-25 25 -41 85l-228 867q-12 44 -23 93.5t-16 77.5l-6 28h-4q-18 -100 -44 -199l-227 -867q-16 -60 -41 -85q-35 -35 -101 -35
q-70 0 -105 35q-26 26 -42 86z" />
    <glyph glyph-name="X" unicode="X" horiz-adv-x="1197" 
d="M484 704l-357 494q-3 4 -10.5 14.5t-9 13t-7 10.5t-7 11t-4.5 9.5t-4 10.5t-2 9.5t-1 11.5q0 40 33.5 69.5t74.5 29.5q33 0 54 -21q15 -15 43 -56l325 -471l305 466q34 52 44 62q18 20 53 20q39 0 70 -26t31 -62q0 -13 -6 -27t-13 -24.5t-25 -35.5l-359 -506l378 -526
q3 -4 10.5 -14.5t9 -13t7 -10.5t7 -11t4.5 -9.5t4 -10.5t2 -9.5t1 -11.5q0 -40 -33 -69.5t-75 -29.5q-32 0 -53 21q-15 15 -43 56l-347 504l-324 -499q-33 -50 -45 -62q-20 -20 -53 -20q-39 0 -69.5 25.5t-30.5 62.5q0 13 5.5 27t12.5 24t25 36z" />
    <glyph glyph-name="Y" unicode="Y" horiz-adv-x="1110" 
d="M459 574l-385 635q-22 35 -29 51t-7 34q0 40 33.5 66.5t71.5 26.5q33 0 54 -21q13 -13 41 -62l266 -457l58 -109h4q25 55 58 114l253 451q27 48 41 62q22 22 54 22q38 0 68.5 -26t30.5 -64q0 -24 -35 -82l-389 -641v-497q0 -83 -94 -83t-94 83v497z" />
    <glyph glyph-name="Z" unicode="Z" horiz-adv-x="1044" 
d="M306 157h596q34 0 52.5 -20.5t18.5 -58.5t-19 -58t-52 -20h-710q-51 0 -79 26t-28 72q0 41 39 107l609 1016h-556q-34 0 -52.5 20.5t-18.5 58.5t19 58t52 20h670q51 0 79 -26t28 -72q0 -41 -39 -107z" />
    <glyph glyph-name="bracketleft" unicode="[" horiz-adv-x="639" 
d="M355 -219h157q29 0 45.5 -18.5t16.5 -52.5t-17 -52t-45 -18h-245q-40 0 -61.5 21.5t-21.5 61.5v1713q0 40 21.5 62t61.5 22h245q28 0 45 -18.5t17 -52.5t-16.5 -52.5t-45.5 -18.5h-157v-1597z" />
    <glyph glyph-name="backslash" unicode="\" horiz-adv-x="843" 
d="M672 -267l-595 1632q-12 32 -12 49q0 32 29 54.5t64 22.5q31 0 47 -17t29 -53l596 -1632q11 -29 11 -49q0 -33 -28 -55t-64 -22q-32 0 -47.5 16.5t-29.5 53.5z" />
    <glyph glyph-name="bracketright" unicode="]" horiz-adv-x="639" 
d="M284 -219v1597h-156q-29 0 -46 18t-17 53q0 34 17 52.5t46 18.5h244q40 0 62 -22t22 -62v-1713q0 -40 -22 -61.5t-62 -21.5h-244q-29 0 -46 18t-17 52q0 35 17 53t46 18h156z" />
    <glyph glyph-name="asciicircum" unicode="^" horiz-adv-x="1168" 
d="M580 1190l-274 -437q-31 -49 -71 -49q-31 0 -54 21.5t-23 53.5q0 24 21 55l313 506q37 58 94 58q55 0 93 -58l309 -501q22 -32 22 -59q0 -31 -26 -53.5t-59 -22.5q-42 1 -71 47z" />
    <glyph glyph-name="underscore" unicode="_" horiz-adv-x="1168" 
d="M67 -368h1034q67 0 67 -73q0 -71 -67 -71h-1034q-67 0 -67 71q0 73 67 73z" />
    <glyph glyph-name="grave" unicode="`" 
d="M569 1173l-199 204q-29 27 -29 52q0 38 33 67t70 29q31 0 56 -35l168 -235q20 -26 20 -43q0 -26 -20.5 -45.5t-48.5 -19.5q-25 0 -50 26z" />
    <glyph glyph-name="a" unicode="a" horiz-adv-x="1074" 
d="M726 262v126q-78 24 -188 24q-248 0 -248 -135q0 -66 50 -109t139 -43q44 0 85.5 14t69.5 34t50 40.5t32 34.5zM726 519v123q0 125 -54.5 179t-183.5 54q-69 0 -126.5 -15t-92.5 -30t-51 -15q-28 0 -45 17.5t-17 47.5t22 53q33 32 132 62t217 30q190 0 286 -88.5
t96 -257.5v-370q0 -105 12 -174t12 -73q0 -31 -21.5 -51t-57.5 -20q-84 0 -109 130h-3q-4 -6 -12.5 -15t-37 -33t-61 -42.5t-84.5 -33.5t-108 -15q-156 0 -246 80.5t-90 206.5q0 132 109.5 202.5t305.5 70.5q58 0 110 -6t75 -12z" />
    <glyph glyph-name="b" unicode="b" horiz-adv-x="1167" 
d="M174 149v1252q0 82 91 82q45 0 68.5 -21.5t23.5 -60.5v-386q0 -67 -7 -136h3q4 6 12 16t36 35t60.5 44.5t86 35.5t112.5 16q188 0 298.5 -127t110.5 -369q0 -259 -142.5 -404t-393.5 -145q-119 0 -210 28.5t-120 57.5t-29 82zM357 703v-530q7 -5 21.5 -13t66 -21
t110.5 -13q149 0 237.5 100t88.5 286q0 363 -263 363q-49 0 -93.5 -17.5t-74 -43t-51.5 -51t-32 -43.5z" />
    <glyph glyph-name="c" unicode="c" horiz-adv-x="923" 
d="M98 466q0 258 141.5 409t369.5 151q82 0 138.5 -19.5t79.5 -43.5q25 -24 25 -62q0 -28 -18 -47t-47 -19q-14 0 -71.5 21t-122.5 21q-134 0 -220.5 -102t-86.5 -285q0 -167 88 -262.5t232 -95.5q67 0 124.5 19.5t68.5 19.5q26 0 42 -17t16 -43q0 -32 -27 -59
q-29 -29 -98 -50t-162 -21q-212 0 -342 132.5t-130 352.5z" />
    <glyph glyph-name="d" unicode="d" horiz-adv-x="1167" 
d="M811 1132v269q0 82 91 82q45 0 68.5 -21.5t23.5 -60.5v-1333q0 -37 -20 -57t-57 -20q-69 0 -81 81l-10 69h-3q-4 -6 -12 -17t-36.5 -38.5t-62 -48.5t-88.5 -38t-116 -17q-189 0 -299.5 127t-110.5 368q0 260 142.5 404.5t394.5 144.5q44 0 88 -6t66 -12l22 -6l3 1
q-3 61 -3 129zM811 305v532q-8 5 -23 11.5t-66.5 18t-109.5 11.5q-149 0 -237.5 -99.5t-88.5 -282.5q0 -363 263 -363q49 0 94 17.5t74 43t51.5 51t32.5 43.5z" />
    <glyph glyph-name="e" unicode="e" horiz-adv-x="1070" 
d="M860 484h-578v-7q4 -161 93.5 -253t235.5 -92q67 0 120 13t85 25.5t48 12.5q27 0 43 -17t16 -42q0 -32 -26 -58q-31 -31 -116 -58t-200 -27q-220 0 -351.5 132.5t-131.5 357.5q0 260 131.5 407.5t341.5 147.5q177 0 285.5 -115.5t108.5 -313.5q0 -113 -105 -113zM290 615
h503q-28 270 -244 270q-95 0 -165.5 -68.5t-93.5 -201.5z" />
    <glyph glyph-name="f" unicode="f" horiz-adv-x="654" 
d="M212 863h-110q-30 0 -48 19t-18 53t18 53.5t48 19.5h110v106q0 180 94 279t258 99q53 0 94 -13t59 -31q23 -23 23 -59q0 -31 -17.5 -49t-43.5 -18q-12 0 -48.5 11.5t-74.5 11.5q-161 0 -161 -215v-122h177q30 0 48 -19.5t18 -53.5t-18 -53t-48 -19h-177v-787
q0 -82 -91 -82q-92 0 -92 82v787z" />
    <glyph glyph-name="g" unicode="g" horiz-adv-x="1052" 
d="M940 1023l-104 -100q103 -94 103 -232q0 -162 -110 -261t-307 -99q-80 0 -143 23q-6 -5 -15 -14t-24 -36t-15 -52q0 -51 45.5 -79t155.5 -28h117q186 0 279.5 -71t93.5 -202q0 -156 -134.5 -260t-377.5 -104q-216 0 -327 85.5t-111 215.5q0 52 16.5 98.5t39.5 76t46 51.5
t40 32l16 10q-67 58 -67 151q0 31 10.5 61.5t25 52t29 38.5t24.5 26l11 8q-61 45 -94 110.5t-33 140.5q0 161 110.5 260.5t306.5 99.5q88 0 170 -31l119 139q23 27 38.5 37t36.5 10q31 0 55.5 -22.5t24.5 -55.5q0 -19 -11.5 -35.5t-39.5 -43.5zM609 -1h-112q-83 0 -149 19
q-4 -3 -10.5 -8t-24 -23t-30.5 -38t-23.5 -51.5t-10.5 -64.5q0 -82 68.5 -132.5t203.5 -50.5q150 0 231.5 57t81.5 141q0 74 -52.5 112.5t-172.5 38.5zM311 680q0 -93 60.5 -150t164.5 -57q105 0 164 55t59 148q0 94 -60.5 150.5t-166.5 56.5q-104 0 -162.5 -55t-58.5 -148z
" />
    <glyph glyph-name="h" unicode="h" horiz-adv-x="1200" 
d="M174 76v1325q0 82 91 82q45 0 68.5 -21.5t23.5 -60.5v-386q0 -67 -7 -136h3q4 6 12 16t36 35t60.5 44.5t86 35.5t112.5 16q177 0 276.5 -106.5t99.5 -305.5v-538q0 -82 -91 -82q-92 0 -92 82v512q0 287 -235 287q-49 0 -93.5 -17.5t-74 -43t-51.5 -51t-32 -43.5l-10 -17
v-627q0 -82 -92 -82q-91 0 -91 82z" />
    <glyph glyph-name="i" unicode="i" horiz-adv-x="530" 
d="M174 76v856q0 82 91 82q92 0 92 -82v-856q0 -82 -92 -82q-91 0 -91 82zM141 1318q0 54 35.5 89t90.5 35q52 0 87 -34.5t35 -85.5q0 -53 -35.5 -88t-90.5 -35q-52 0 -87 34.5t-35 84.5z" />
    <glyph glyph-name="j" unicode="j" horiz-adv-x="531" 
d="M174 6v926q0 82 92 82q91 0 91 -82v-945q0 -250 -128 -378q-43 -43 -92.5 -65.5t-92.5 -22.5q-38 0 -59.5 18.5t-21.5 50.5q0 39 37 62q48 29 76.5 53.5t53 64t34.5 96.5t10 140zM141 1318q0 53 36 88.5t91 35.5q52 0 87 -35t35 -85q0 -53 -35.5 -88t-90.5 -35
q-52 0 -87.5 34.5t-35.5 84.5z" />
    <glyph glyph-name="k" unicode="k" horiz-adv-x="1006" 
d="M357 581l392 377q29 27 40 36q28 23 57 23q36 0 63 -26t27 -58q0 -33 -37 -67l-339 -307l360 -409q30 -34 30 -65q0 -39 -31 -66.5t-69 -27.5q-32 0 -56 24q-11 11 -31 34l-406 483v-456q0 -82 -92 -82q-91 0 -91 82v1325q0 82 91 82q45 0 68.5 -21.5t23.5 -60.5v-820z
" />
    <glyph glyph-name="l" unicode="l" horiz-adv-x="569" 
d="M170 235v1166q0 82 91 82q45 0 68.5 -21.5t23.5 -60.5v-1116q0 -81 21 -113.5t63 -32.5q13 0 31 2t26 2q23 0 38 -16t15 -41q0 -34 -22 -56q-40 -40 -131 -40q-109 0 -166.5 61.5t-57.5 183.5z" />
    <glyph glyph-name="m" unicode="m" horiz-adv-x="1842" 
d="M174 76v864q0 36 19.5 56t56.5 20q70 0 82 -80l9 -69h3q4 6 11.5 17t35.5 38.5t60.5 48.5t86.5 38t113 17q230 0 320 -188q5 8 13.5 20.5t40 45t68 57t96 45t123.5 20.5q170 0 268 -106.5t98 -305.5v-538q0 -82 -91 -82q-92 0 -92 82v512q0 146 -59 216.5t-167 70.5
q-47 0 -91 -18.5t-72.5 -45t-51 -53t-32.5 -44.5l-10 -19q0 -1 1 -14.5t2.5 -36t1.5 -43.5v-525q0 -82 -91 -82q-92 0 -92 82v512q0 146 -59 216.5t-167 70.5q-46 0 -88.5 -17.5t-71 -43t-50 -51t-31.5 -43.5l-10 -17v-627q0 -82 -92 -82q-91 0 -91 82z" />
    <glyph glyph-name="n" unicode="n" horiz-adv-x="1200" 
d="M174 76v864q0 36 19.5 56t56.5 20t56.5 -19.5t25.5 -60.5l9 -69h3q4 6 11.5 17t36 38.5t62 48.5t89 38t117.5 17q177 0 276.5 -106.5t99.5 -305.5v-538q0 -82 -91 -82q-92 0 -92 82v512q0 287 -235 287q-49 0 -93.5 -17.5t-74 -43t-51.5 -51t-32 -43.5l-10 -17v-627
q0 -82 -92 -82q-91 0 -91 82z" />
    <glyph glyph-name="o" unicode="o" horiz-adv-x="1177" 
d="M98 486q0 252 137 396t366 144q210 0 343.5 -138.5t133.5 -365.5q0 -252 -136.5 -396.5t-365.5 -144.5q-210 0 -344 139t-134 366zM286 506q0 -175 86.5 -275.5t218.5 -100.5q133 0 216.5 97.5t83.5 274.5q0 174 -86.5 275t-217.5 101q-134 0 -217.5 -97.5t-83.5 -274.5z
" />
    <glyph glyph-name="p" unicode="p" horiz-adv-x="1167" 
d="M174 -397v1337q0 36 19.5 56t56.5 20q70 0 82 -80l9 -69h3q4 6 12 17t36.5 38.5t62 48.5t89 38t116.5 17q188 0 298.5 -127t110.5 -369q0 -259 -142.5 -404t-393.5 -145q-44 0 -88 6t-66 12l-22 6l-3 -1q3 -60 3 -128v-273q0 -39 -23.5 -60.5t-68.5 -21.5q-91 0 -91 82z
M357 703v-536q8 -5 22.5 -11.5t66 -18t109.5 -11.5q149 0 237.5 100t88.5 286q0 363 -263 363q-49 0 -93.5 -17.5t-74 -43t-51.5 -51t-32 -43.5z" />
    <glyph glyph-name="q" unicode="q" horiz-adv-x="1167" 
d="M811 -397v390q0 77 6 136h-3q-4 -6 -12 -16t-36 -35t-60 -44.5t-85.5 -35.5t-112.5 -16q-189 0 -299.5 127t-110.5 368q0 260 142.5 404.5t394.5 144.5q119 0 210 -28.5t120 -57.5t29 -81v-1256q0 -39 -23.5 -60.5t-68.5 -21.5q-91 0 -91 82zM811 305v531q-7 5 -22 12
t-66.5 18.5t-110.5 11.5q-149 0 -237.5 -99.5t-88.5 -282.5q0 -363 263 -363q49 0 94 17.5t74 43t51.5 51t32.5 43.5z" />
    <glyph glyph-name="r" unicode="r" horiz-adv-x="716" 
d="M174 76v864q0 36 19.5 56t56.5 20t56.5 -20t25.5 -62l12 -92h3q43 83 108.5 133.5t140.5 50.5q52 0 79.5 -25t27.5 -72q0 -48 -23 -75.5t-54 -27.5q-14 0 -34.5 5t-34.5 5q-106 0 -200 -181v-579q0 -82 -92 -82q-91 0 -91 82z" />
    <glyph glyph-name="s" unicode="s" horiz-adv-x="911" 
d="M116 733q0 127 101 210t282 83q94 0 155.5 -19.5t86.5 -44.5t25 -62q0 -27 -18.5 -45t-46.5 -18q-13 0 -81 22.5t-137 22.5q-93 0 -140 -35.5t-47 -92.5q0 -43 28.5 -74t74.5 -50.5t101.5 -37t111 -40t101.5 -53t74.5 -83t28.5 -123.5q0 -135 -107 -223t-299 -88
q-111 0 -179.5 21t-95.5 48q-25 25 -25 62q0 30 18 48.5t47 18.5q15 0 46.5 -13.5t84 -27t119.5 -13.5q105 0 157.5 40t52.5 106q0 45 -28.5 77.5t-74.5 52t-101 37.5t-110.5 40.5t-101.5 52t-74.5 81t-28.5 120.5z" />
    <glyph glyph-name="t" unicode="t" horiz-adv-x="703" 
d="M209 863h-111q-30 0 -48 19t-18 53t18 53.5t48 19.5h113l25 189q12 85 84 85q34 0 53 -19.5t19 -55.5v-199h210q30 0 48 -19.5t18 -53.5t-18 -53t-48 -19h-210v-576q0 -79 28 -113.5t89 -34.5q35 0 68.5 9t42.5 9q25 0 40.5 -16t15.5 -42q0 -32 -25 -57q-52 -52 -183 -52
q-259 0 -259 251v622z" />
    <glyph glyph-name="u" unicode="u" horiz-adv-x="1193" 
d="M164 393v539q0 82 92 82q91 0 91 -82v-512q0 -287 228 -287q49 0 93.5 17.5t74 43t51.5 51t32 43.5l10 17v627q0 82 92 82q91 0 91 -82v-864q0 -37 -19.5 -57t-56.5 -20q-70 0 -82 81l-9 69h-3q-4 -6 -11.5 -17t-36 -38.5t-62 -48.5t-89 -38t-117.5 -17
q-172 0 -270.5 106t-98.5 305z" />
    <glyph glyph-name="v" unicode="v" horiz-adv-x="1004" 
d="M354 128l-287 737q-19 49 -19 66q0 38 32 62t69 24q38 0 56 -21q14 -16 33 -68l220 -592q14 -38 26 -74.5t16 -53.5l5 -17h4q17 59 48 145l218 596q20 53 30 64q19 21 56 21q36 0 65.5 -21.5t29.5 -56.5q0 -18 -17 -61l-291 -750q-31 -78 -55 -102q-32 -32 -92 -32
q-61 0 -93 32q-25 25 -54 102z" />
    <glyph glyph-name="w" unicode="w" horiz-adv-x="1605" 
d="M325 114l-236 759q-14 44 -14 63q0 37 32 59t69 22t58 -21q13 -13 31 -75l172 -591q11 -38 20 -75.5t13 -55.5l3 -18h4q12 64 37 149l168 565q20 69 48 95.5t80 26.5q53 0 81 -26.5t48 -94.5l168 -566q11 -37 20.5 -74.5t12.5 -55.5l4 -19h4q13 65 36 149l165 592
q16 57 31 75q18 20 56 20q36 0 64.5 -20t28.5 -55q0 -22 -13 -63l-236 -761q-21 -66 -46 -93q-28 -31 -91 -31q-61 0 -89 29q-25 26 -46 96l-164 548q-12 40 -21.5 78.5t-12.5 56.5l-4 19h-4q-10 -64 -37 -154l-164 -548q-22 -70 -46 -94q-31 -31 -91 -31q-63 0 -94 31
q-24 24 -45 89z" />
    <glyph glyph-name="x" unicode="x" horiz-adv-x="1034" 
d="M405 511l-264 320q-23 27 -29.5 35.5t-14 23.5t-7.5 28q0 41 33.5 70t69.5 29q27 0 47 -18q11 -11 42 -50l248 -313l230 309q30 40 42 52q20 20 49 20q35 0 65 -26t30 -62q0 -12 -7 -26t-15 -24.5t-28 -34.5l-267 -323l285 -344q22 -27 29 -35.5t14.5 -24t7.5 -28.5
q0 -41 -33.5 -69.5t-69.5 -28.5q-27 0 -47 18q-15 15 -42 50l-269 338l-250 -334q-33 -44 -41 -52q-22 -20 -50 -20q-34 0 -64 25.5t-30 61.5q0 18 10.5 35t39.5 51z" />
    <glyph glyph-name="y" unicode="y" horiz-adv-x="1004" 
d="M405 -10l-338 875q-19 49 -19 66q0 38 32 62t69 24t56 -22q12 -13 32 -67l219 -597l50 -153h4q16 65 48 153l217 602q19 52 30 63q21 21 56 21q36 0 65.5 -21t29.5 -57q0 -17 -17 -60l-308 -792q-121 -311 -248.5 -440.5t-296.5 -129.5q-81 0 -114 33q-22 22 -22 58
q0 29 18 47t49 18q15 0 37.5 -2t36.5 -2q96 0 171.5 80.5t142.5 240.5z" />
    <glyph glyph-name="z" unicode="z" horiz-adv-x="948" 
d="M143 197l483 666h-440q-30 0 -48 19t-18 53t18 53.5t48 19.5h557q52 0 78.5 -24.5t26.5 -68.5q0 -40 -47 -104l-484 -666h487q30 0 48 -19.5t18 -53.5t-18 -53t-48 -19h-603q-52 0 -78.5 24.5t-26.5 68.5q0 42 47 104z" />
    <glyph glyph-name="braceleft" unicode="{" horiz-adv-x="679" 
d="M252 -60v291q0 195 -52 246q-27 27 -64.5 38t-48.5 22q-21 23 -21 60q0 38 21 59q11 11 48.5 22t64.5 38q52 51 52 247v235q0 328 257 328h4q98 0 98 -72q0 -66 -72 -66h-8q-59 0 -82.5 -34.5t-23.5 -137.5v-235q0 -122 -16 -196.5t-45 -112.5t-81 -67v-2q52 -28 81 -66
t45 -109t16 -185v-284q0 -110 26 -149.5t86 -39.5h8q33 0 49.5 -16.5t16.5 -45.5q0 -75 -110 -75h-4q-121 0 -183 73.5t-62 233.5z" />
    <glyph glyph-name="bar" unicode="|" horiz-adv-x="618" 
d="M229 -412v1828q0 79 79 79q82 0 82 -79v-1828q0 -80 -82 -80q-79 0 -79 80z" />
    <glyph glyph-name="braceright" unicode="}" horiz-adv-x="679" 
d="M253 -58v270q0 122 16 196.5t45.5 112.5t81.5 67v2q-52 29 -81.5 67t-45.5 109t-16 186v247q0 110 -25.5 149.5t-86.5 39.5h-8q-32 0 -48.5 16.5t-16.5 45.5q0 76 110 76h4q121 0 183 -74t62 -234v-255q0 -196 51 -247q27 -27 65 -38t49 -22q20 -20 20 -59q0 -38 -20 -60
q-11 -11 -49 -22t-65 -38q-51 -51 -51 -246v-270q0 -328 -258 -328h-4q-97 0 -97 71q0 66 71 66h8q59 0 82.5 34.5t23.5 137.5z" />
    <glyph glyph-name="asciitilde" unicode="~" horiz-adv-x="1168" 
d="M416 731q48 0 90.5 -14.5t73 -35.5t59 -42t60 -35.5t63.5 -14.5q82 0 143 99q21 29 53 29q28 0 49.5 -19t21.5 -48q0 -15 -7 -32q-35 -80 -108.5 -130.5t-162.5 -50.5q-48 0 -90.5 14.5t-73 35.5t-59 42t-60 35.5t-63.5 14.5q-82 0 -143 -99q-22 -29 -53 -29
q-28 0 -49.5 19.5t-21.5 47.5q0 15 7 32q35 80 108.5 130.5t162.5 50.5z" />
    <glyph glyph-name="uni00A0" unicode="&#xa0;" horiz-adv-x="545" 
 />
    <glyph glyph-name="exclamdown" unicode="&#xa1;" horiz-adv-x="617" 
d="M208 -206l18 810q1 34 22 53t60 19q40 0 61.5 -19t22.5 -53l17 -810q2 -71 2 -140q0 -80 -103 -80q-53 0 -77.5 22t-24.5 58q0 14 0.5 32t1 49.5t0.5 58.5zM176 947q0 56 38.5 94t95.5 38q58 0 94.5 -36t36.5 -92t-38.5 -94t-96.5 -38q-57 0 -93.5 36t-36.5 92z" />
    <glyph glyph-name="cent" unicode="&#xa2;" horiz-adv-x="1013" 
d="M513 -96v229q-187 24 -291.5 144.5t-104.5 309.5q0 206 106 340.5t291 169.5v234q0 67 70 67t70 -67v-222q87 -2 147.5 -23.5t84.5 -45.5q25 -25 25 -62q0 -28 -18 -47t-48 -19q-16 0 -46.5 12t-76 24t-98.5 12q-147 0 -233.5 -93t-86.5 -263q0 -153 87.5 -239.5
t244.5 -86.5q57 0 103 11t74.5 22t43.5 11q27 0 43 -17t16 -43q0 -30 -27 -59q-27 -26 -89 -47.5t-147 -26.5v-225q0 -67 -70 -67t-70 67z" />
    <glyph glyph-name="sterling" unicode="&#xa3;" horiz-adv-x="1059" 
d="M279 634h-97q-34 0 -52.5 19.5t-18.5 53.5q0 33 18.5 53t52.5 20h64q-1 5 -7 28t-8.5 33t-7.5 32.5t-7 38.5t-4 37.5t-2 42.5q0 172 126.5 284.5t341.5 112.5q83 0 140 -19.5t82 -43.5q25 -26 25 -62q0 -28 -18.5 -47t-48.5 -19q-13 0 -71.5 21.5t-123.5 21.5
q-129 0 -199 -62.5t-70 -167.5q0 -25 2 -48t7.5 -50.5t8 -40.5t12 -48t11.5 -44h349q35 0 53.5 -20t18.5 -53q0 -34 -18.5 -53.5t-53.5 -19.5h-318q38 -262 -133 -476l2 -2h583q31 0 49.5 -21t18.5 -57t-18.5 -57t-49.5 -21h-683q-53 0 -82.5 27.5t-29.5 73.5q0 33 11 59
t40 66q20 27 35.5 50.5t32 54.5t26.5 63.5t16.5 69.5t5 80.5t-10.5 89.5z" />
    <glyph glyph-name="currency" unicode="&#xa4;" horiz-adv-x="1043" 
d="M323 382l-92 -125q-23 -33 -54 -33q-28 0 -51.5 23t-23.5 50q0 25 23 48l106 113q-78 95 -78 243q0 152 82 253l-103 108q-24 28 -24 49q0 28 26 52.5t55 24.5q30 0 54 -33l89 -123q86 47 197 47q110 0 190 -46l93 127q24 32 54 32q29 0 52.5 -22.5t23.5 -49.5
q0 -23 -24 -49l-106 -113q78 -97 78 -241q0 -153 -82 -254l103 -109q24 -28 24 -48q0 -29 -25.5 -53.5t-55.5 -24.5t-54 34l-89 122q-83 -47 -198 -47q-108 0 -190 45zM303 711q0 -118 61 -185.5t159 -67.5t157.5 66t59.5 183t-61 184t-160 67q-97 0 -156.5 -65.5
t-59.5 -181.5z" />
    <glyph glyph-name="yen" unicode="&#xa5;" horiz-adv-x="1223" 
d="M518 512h-244q-67 0 -67 64t67 64h224l-349 572q-3 5 -10 16.5t-9 15t-6.5 11.5t-5.5 11.5t-3.5 10t-3 11t-0.5 10.5q0 38 30.5 63.5t67.5 25.5q33 0 54 -21q7 -7 42 -64l256 -437l57 -109h4q26 55 59 113l245 434q29 52 40 63q23 21 53 21q36 0 64.5 -25t28.5 -60
q0 -25 -37 -84l-353 -578h224q68 0 68 -64t-68 -64h-244v-151h244q68 0 68 -64t-68 -64h-244v-158q0 -81 -92 -81q-93 0 -93 81v158h-243q-67 0 -67 64t67 64h244v151z" />
    <glyph glyph-name="brokenbar" unicode="&#xa6;" horiz-adv-x="618" 
d="M229 735v681q0 79 79 79q82 0 82 -79v-681q0 -79 -82 -79q-79 0 -79 79zM229 -412v696q0 79 79 79q82 0 82 -79v-696q0 -80 -82 -80q-79 0 -79 80z" />
    <glyph glyph-name="section" unicode="&#xa7;" horiz-adv-x="1109" 
d="M131 553q0 211 206 315q-103 91 -103 219q0 141 100 226t277 85q92 0 154 -20t86 -44q26 -26 26 -62q0 -27 -18.5 -44.5t-46.5 -17.5q-13 0 -80.5 22.5t-136.5 22.5q-92 0 -137 -38.5t-45 -108.5q0 -44 24.5 -81t64 -62.5t90.5 -53t103.5 -51.5t103.5 -58t90.5 -72.5
t64 -95.5t24.5 -126q0 -209 -205 -314q102 -90 102 -219q0 -141 -100 -226t-277 -85q-93 0 -154.5 19.5t-86.5 44.5q-25 26 -25 62q0 26 18.5 44t46.5 18q13 0 80.5 -22.5t136.5 -22.5q91 0 136.5 38.5t45.5 108.5q0 44 -24.5 81t-64 62.5t-90.5 53t-103.5 51t-103.5 57.5
t-90.5 72.5t-64 95.5t-24.5 126zM315 575q0 -37 14.5 -70t33.5 -56t56.5 -48.5t63.5 -40t76.5 -40t74.5 -38.5q160 71 160 205q0 32 -9 60t-29 51.5t-39.5 42t-54 38.5t-58.5 32.5t-65.5 33.5t-64.5 33q-159 -69 -159 -203z" />
    <glyph glyph-name="dieresis" unicode="&#xa8;" 
d="M193 1318q0 50 34.5 84.5t85.5 34.5q52 0 84.5 -32.5t32.5 -82.5q0 -51 -34 -86t-85 -35q-52 0 -85 32.5t-33 84.5zM594 1318q0 50 34.5 84.5t86.5 34.5q51 0 83.5 -32.5t32.5 -82.5q0 -51 -33.5 -86t-84.5 -35q-53 0 -86 32.5t-33 84.5z" />
    <glyph glyph-name="copyright" unicode="&#xa9;" horiz-adv-x="1608" 
d="M455 670q0 200 106.5 315t279.5 115q69 0 118.5 -17t71.5 -39q21 -21 21 -49q0 -23 -14 -38t-36 -15q-13 0 -33.5 11t-54 21.5t-80.5 10.5q-102 0 -167.5 -78.5t-65.5 -220.5q0 -134 65.5 -206t176.5 -72q44 0 77.5 10t54.5 20t34 10q21 0 33 -14t12 -35q0 -26 -21 -47
q-24 -24 -80 -43t-133 -19q-167 0 -266 102t-99 278zM107 684q0 209 89.5 372t249 252.5t363.5 89.5q310 0 501 -193.5t191 -510.5q0 -209 -89.5 -371.5t-249 -252t-363.5 -89.5q-310 0 -501 193.5t-191 509.5zM241 689q0 -267 156.5 -429t406.5 -162t406.5 162t156.5 429
q0 268 -156.5 430t-406.5 162t-406.5 -162t-156.5 -430z" />
    <glyph glyph-name="ordfeminine" unicode="&#xaa;" horiz-adv-x="837" 
d="M540 883v80q-49 15 -118 15q-153 0 -153 -85q0 -41 31 -67.5t86 -26.5q27 0 53 8.5t43.5 21t31 25t20.5 20.5zM540 1057v75q0 76 -35 109t-118 33q-63 0 -119.5 -19.5t-63.5 -19.5q-21 0 -34 13.5t-13 36.5q0 22 18 40q22 23 90.5 43.5t153.5 20.5q264 0 264 -233v-237
q0 -70 9.5 -117.5t9.5 -52.5q0 -23 -17 -38.5t-46 -15.5q-63 0 -83 86h-2q-3 -4 -8.5 -10t-24.5 -22t-40.5 -28t-56.5 -22t-73 -10q-106 0 -167.5 55.5t-61.5 142.5q0 89 76 136.5t209 47.5q36 0 69.5 -3.5t48.5 -7.5zM147 573h546q28 0 43.5 -15t15.5 -43t-15.5 -43.5
t-43.5 -15.5h-546q-28 0 -44 15.5t-16 43.5t15.5 43t44.5 15z" />
    <glyph glyph-name="guillemotleft" unicode="&#xab;" horiz-adv-x="1177" 
d="M294 508l282 -315q29 -31 29 -57q0 -31 -25 -54.5t-58 -23.5q-30 0 -63 34l-320 333q-37 39 -37 78q0 40 36 79l319 330q37 39 66 39q32 0 55.5 -22.5t23.5 -53.5q0 -22 -31 -59zM770 508l268 -300q28 -33 28 -56q0 -31 -25 -55t-56 -24q-28 0 -63 35l-305 317
q-37 39 -37 78q0 40 37 79l304 315q34 37 65 37q30 0 53.5 -22t23.5 -52q0 -11 -5.5 -22.5t-9 -16t-17.5 -21.5z" />
    <glyph glyph-name="logicalnot" unicode="&#xac;" horiz-adv-x="1168" 
d="M841 511h-607q-31 0 -49.5 19.5t-18.5 52.5t18.5 52.5t49.5 19.5h673q90 0 90 -91v-293q0 -39 -20.5 -59.5t-57.5 -20.5t-57.5 20.5t-20.5 59.5v240z" />
    <glyph glyph-name="uni00AD" unicode="&#xad;" horiz-adv-x="961" 
d="M226 612h509q67 0 67 -73q0 -74 -67 -74h-509q-31 0 -49 19t-18 55q0 35 18 54t49 19z" />
    <glyph glyph-name="registered" unicode="&#xae;" horiz-adv-x="985" 
d="M431 1047v-135q0 -38 -43 -38q-42 0 -42 38v352q0 38 39 38h106q85 0 127 -32.5t42 -87.5q0 -45 -25.5 -76t-66.5 -43q19 -53 58 -92q11 -11 26 -23t18 -15q11 -10 11 -24q0 -15 -12 -25t-32 -10q-36 0 -72 35q-44 44 -77 138h-57zM431 1114h60q81 0 81 61q0 58 -85 58
h-56v-119zM77 1084q0 179 117.5 295t301.5 116t298 -112.5t114 -291.5q0 -180 -117 -295.5t-302 -115.5q-184 0 -298 112.5t-114 291.5zM167 1088q0 -147 90.5 -238.5t234.5 -91.5q145 0 235.5 91.5t90.5 238.5q0 146 -90.5 237t-234.5 91t-235 -91t-91 -237z" />
    <glyph glyph-name="macron" unicode="&#xaf;" 
d="M262 1387h500q65 0 65 -69t-65 -69h-500q-65 0 -65 69t65 69z" />
    <glyph glyph-name="degree" unicode="&#xb0;" horiz-adv-x="837" 
d="M122 1213q0 121 84.5 201.5t216.5 80.5q131 0 211 -76.5t80 -197.5t-84 -202t-215 -81q-132 0 -212.5 76.5t-80.5 198.5zM263 1217q0 -71 43.5 -115.5t112.5 -44.5q68 0 111.5 44.5t43.5 115.5q0 70 -43.5 114.5t-111.5 44.5q-69 0 -112.5 -44.5t-43.5 -114.5z" />
    <glyph glyph-name="plusminus" unicode="&#xb1;" horiz-adv-x="1168" 
d="M506 653h-280q-31 0 -49 19.5t-18 52.5q0 32 18 51.5t49 19.5h280v282q0 39 20.5 59.5t57.5 20.5t57.5 -20.5t20.5 -59.5v-282h279q31 0 49.5 -19.5t18.5 -51.5q0 -33 -18.5 -52.5t-49.5 -19.5h-279v-283q0 -38 -20.5 -58.5t-57.5 -20.5t-57.5 20.5t-20.5 58.5v283z
M217 144h732q31 0 50 -20t19 -52t-18.5 -52t-49.5 -20h-732q-31 0 -49.5 19.5t-18.5 52.5q0 32 18 52t49 20z" />
    <glyph glyph-name="two.superior" unicode="&#xb2;" horiz-adv-x="687" 
d="M238 756h316q26 0 40.5 -16.5t14.5 -46.5t-14.5 -47t-40.5 -17h-412q-41 0 -64 21.5t-23 56.5q0 46 40 83l144 134q100 93 136.5 143t36.5 102q0 46 -31 72.5t-91 26.5q-40 0 -88.5 -13.5t-59.5 -13.5q-21 0 -35 14t-14 36q0 26 19 45q22 22 82 38.5t136 16.5
q122 0 187.5 -55t65.5 -143q0 -85 -50.5 -155.5t-181.5 -182.5z" />
    <glyph glyph-name="three.superior" unicode="&#xb3;" horiz-adv-x="697" 
d="M289 733q69 0 106.5 31.5t37.5 80.5q0 56 -47.5 84t-168.5 28q-24 0 -33 9q-16 16 -16 50t16 50q9 9 33 9q190 0 190 109q0 86 -120 86q-40 0 -81.5 -13t-52.5 -13q-23 0 -36.5 13.5t-13.5 37.5q0 26 19 44q20 21 74 36.5t126 15.5q124 0 187.5 -50.5t63.5 -134.5
q0 -58 -33.5 -102.5t-90.5 -68.5v-1q73 -16 112 -63t39 -121q0 -101 -81.5 -167.5t-226.5 -66.5q-141 0 -189 48q-19 19 -19 47q0 23 14.5 38.5t36.5 15.5q10 0 55 -16t99 -16z" />
    <glyph glyph-name="acute" unicode="&#xb4;" 
d="M353 1255l168 235q25 35 57 35q36 0 69.5 -29t33.5 -67q0 -24 -30 -52l-199 -204q-25 -26 -50 -26q-28 0 -48 19.5t-20 45.5q0 18 19 43z" />
    <glyph glyph-name="mu" unicode="&#xb5;" horiz-adv-x="1202" 
d="M174 -397v1329q0 82 91 82q92 0 92 -82v-512q0 -287 228 -287q48 0 93 17.5t74 43t51.5 51t32.5 43.5l10 17v627q0 82 92 82q91 0 91 -82v-864q0 -37 -20 -57t-57 -20q-69 0 -81 81l-10 69h-3q-4 -6 -11.5 -17t-35 -38.5t-59.5 -48.5t-85 -38t-112 -17q-66 0 -119.5 18
t-73.5 36l-21 18l-2 -2l15 -367q1 -31 1 -79q0 -85 -90 -85q-91 0 -91 82z" />
    <glyph glyph-name="mu" unicode="&#x3bc;" horiz-adv-x="1202" 
d="M174 -397v1329q0 82 91 82q92 0 92 -82v-512q0 -287 228 -287q48 0 93 17.5t74 43t51.5 51t32.5 43.5l10 17v627q0 82 92 82q91 0 91 -82v-864q0 -37 -20 -57t-57 -20q-69 0 -81 81l-10 69h-3q-4 -6 -11.5 -17t-35 -38.5t-59.5 -48.5t-85 -38t-112 -17q-66 0 -119.5 18
t-73.5 36l-21 18l-2 -2l15 -367q1 -31 1 -79q0 -85 -90 -85q-91 0 -91 82z" />
    <glyph glyph-name="paragraph" unicode="&#xb6;" horiz-adv-x="1281" 
d="M737 1232v-1486q0 -70 -75 -70t-75 70v752q-229 0 -344.5 111t-115.5 325q0 444 522 444h343q43 0 66 -23t23 -66v-1543q0 -70 -75 -70t-75 70v1486h-194z" />
    <glyph glyph-name="periodcentered" unicode="&#xb7;" horiz-adv-x="573" 
d="M154 536q0 58 38.5 97t96.5 39q57 0 94 -37t37 -94q0 -58 -39 -96.5t-96 -38.5q-58 0 -94.5 36.5t-36.5 93.5z" />
    <glyph glyph-name="cedilla" unicode="&#xb8;" 
d="M467 0h123l-27 -105q76 -9 121 -51.5t45 -115.5q0 -95 -75 -157.5t-207 -62.5q-65 0 -95 20t-30 50q0 23 14 37t39 14q8 0 26.5 -1.5t27.5 -1.5q138 0 138 87q0 69 -89 69h-13q-52 0 -37 58z" />
    <glyph glyph-name="one.superior" unicode="&#xb9;" horiz-adv-x="552" 
d="M241 1211l-86 -34q-41 -15 -54 -15q-26 0 -42.5 17t-16.5 42q0 23 19 42q23 23 136 77q95 46 133 46q33 0 53.5 -20t20.5 -53v-619q0 -34 -21 -52.5t-61 -18.5q-81 0 -81 71v517z" />
    <glyph glyph-name="ordmasculine" unicode="&#xba;" horiz-adv-x="895" 
d="M112 1027q0 170 93 266t251 96q146 0 236.5 -93t90.5 -246q0 -170 -93 -266t-251 -96q-146 0 -236.5 93t-90.5 246zM259 1039q0 -111 54 -173.5t136 -62.5q83 0 135 60.5t52 173.5q0 110 -54 174t-136 64q-83 0 -135 -61.5t-52 -174.5zM163 573h569q28 0 43.5 -15
t15.5 -43t-15.5 -43.5t-43.5 -15.5h-569q-28 0 -43.5 15.5t-15.5 43.5t15.5 43t43.5 15z" />
    <glyph glyph-name="guillemotright" unicode="&#xbb;" horiz-adv-x="1177" 
d="M883 499l-282 315q-29 32 -29 56q0 32 25 55.5t58 23.5q31 0 63 -34l320 -333q37 -39 37 -78q0 -40 -36 -79l-319 -330q-37 -39 -66 -39q-32 0 -55.5 22t-23.5 53q0 24 32 60zM407 499l-268 300q-28 33 -28 56q0 31 25 54.5t56 23.5q30 0 63 -34l305 -317q37 -39 37 -78
q0 -40 -36 -79l-304 -315q-36 -37 -66 -37t-53 22t-23 52q0 23 32 60z" />
    <glyph glyph-name="onequarter" unicode="&#xbc;" horiz-adv-x="1544" 
d="M279 90l755 1267q22 40 58 40q28 0 51 -19t23 -46q0 -17 -15 -43l-754 -1267q-24 -40 -59 -40q-28 0 -51 19t-23 46q0 17 15 43zM241 1211l-86 -34q-41 -15 -54 -15q-26 0 -42.5 17t-16.5 42q0 23 19 42q23 23 136 77q95 46 133 46q33 0 53.5 -20t20.5 -53v-619
q0 -34 -21 -52.5t-61 -18.5q-81 0 -81 71v517zM1193 196h-269q-47 0 -71 22.5t-24 62.5q0 37 31 80l249 327q30 40 60 55.5t78 15.5q103 0 103 -80v-362h76q51 0 51 -61q0 -60 -51 -60h-76v-132q0 -70 -79 -70q-38 0 -58 18.5t-20 51.5v132zM1193 317v289l-218 -289h218z
" />
    <glyph glyph-name="onehalf" unicode="&#xbd;" horiz-adv-x="1581" 
d="M279 90l755 1267q22 40 58 40q28 0 51 -19t23 -46q0 -17 -15 -43l-754 -1267q-24 -40 -59 -40q-28 0 -51 19t-23 46q0 17 15 43zM241 1211l-86 -34q-41 -15 -54 -15q-26 0 -42.5 17t-16.5 42q0 23 19 42q23 23 136 77q95 46 133 46q33 0 53.5 -20t20.5 -53v-619
q0 -34 -21 -52.5t-61 -18.5q-81 0 -81 71v517zM1132 127h316q26 0 40.5 -16.5t14.5 -46.5t-14.5 -47t-40.5 -17h-412q-41 0 -64 21.5t-23 56.5q0 46 40 83l144 134q100 93 136.5 143t36.5 102q0 46 -31 72.5t-91 26.5q-40 0 -88.5 -13.5t-59.5 -13.5q-21 0 -35 14t-14 36
q0 26 19 45q22 22 82 38.5t136 16.5q122 0 187.5 -55t65.5 -143q0 -85 -50.5 -155.5t-181.5 -182.5z" />
    <glyph glyph-name="threequarters" unicode="&#xbe;" horiz-adv-x="1656" 
d="M391 90l755 1267q22 40 58 40q28 0 51 -19t23 -46q0 -17 -15 -43l-754 -1267q-24 -40 -59 -40q-28 0 -51 19t-23 46q0 17 15 43zM1305 196h-269q-47 0 -71 22.5t-24 62.5q0 37 31 80l249 327q30 40 60 55.5t78 15.5q103 0 103 -80v-362h76q51 0 51 -61q0 -60 -51 -60h-76
v-132q0 -70 -79 -70q-38 0 -58 18.5t-20 51.5v132zM1305 317v289l-218 -289h218zM289 733q69 0 106.5 31.5t37.5 80.5q0 56 -47.5 84t-168.5 28q-24 0 -33 9q-16 16 -16 50t16 50q9 9 33 9q190 0 190 109q0 86 -120 86q-40 0 -81.5 -13t-52.5 -13q-23 0 -36.5 13.5
t-13.5 37.5q0 26 19 44q20 21 74 36.5t126 15.5q124 0 187.5 -50.5t63.5 -134.5q0 -58 -33.5 -102.5t-90.5 -68.5v-1q73 -16 112 -63t39 -121q0 -101 -81.5 -167.5t-226.5 -66.5q-141 0 -189 48q-19 19 -19 47q0 23 14.5 38.5t36.5 15.5q10 0 55 -16t99 -16z" />
    <glyph glyph-name="questiondown" unicode="&#xbf;" horiz-adv-x="770" 
d="M383 481q0 46 -9 82.5t-9 45.5q0 30 22.5 48.5t63.5 18.5q52 0 83.5 -45.5t31.5 -141.5q0 -58 -18 -109t-46.5 -89.5t-63 -74.5t-68.5 -69.5t-62.5 -67.5t-46.5 -76.5t-18 -88.5q0 -93 60 -146t175 -53q57 0 98.5 10.5t66 20.5t40.5 10q28 0 44 -16t16 -43q0 -30 -23 -56
q-30 -30 -104.5 -53t-174.5 -23q-191 0 -291 87.5t-100 239.5q0 61 18.5 115t47.5 94.5t65 77.5t71.5 70.5t64.5 67.5t47.5 76t18.5 88zM312 947q0 56 38.5 94t96.5 38q57 0 93 -36t36 -92t-38 -94t-96 -38t-94 36t-36 92z" />
    <glyph glyph-name="Agrave" unicode="&#xc0;" horiz-adv-x="1243" 
d="M341 366l-93 -278q-19 -59 -37 -77q-20 -20 -58 -20t-68 22t-30 59q0 21 17 67l403 1129q20 56 47 82q34 34 99 34t99 -34q28 -28 47 -82l405 -1127q17 -46 17 -65q0 -39 -32.5 -62t-71.5 -23q-37 0 -59 22q-17 16 -36 72l-97 281h-552zM389 517h454l-165 474l-64 200h-4
q-26 -92 -62 -200zM619 1506l-248 165q-39 26 -39 58q0 37 29 71t66 34q25 0 50 -23l223 -203q28 -24 28 -49q0 -26 -19.5 -47t-47.5 -21q-19 0 -42 15z" />
    <glyph glyph-name="Aacute" unicode="&#xc1;" horiz-adv-x="1243" 
d="M341 366l-93 -278q-19 -59 -37 -77q-20 -20 -58 -20t-68 22t-30 59q0 21 17 67l403 1129q20 56 47 82q34 34 99 34t99 -34q28 -28 47 -82l405 -1127q17 -46 17 -65q0 -39 -32.5 -62t-71.5 -23q-37 0 -59 22q-17 16 -36 72l-97 281h-552zM389 517h454l-165 474l-64 200h-4
q-26 -92 -62 -200zM521 1608l222 203q25 23 50 23q37 0 66.5 -34t29.5 -71q0 -31 -40 -58l-247 -165q-23 -15 -43 -15q-28 0 -47.5 21t-19.5 47q0 24 29 49z" />
    <glyph glyph-name="Acircumflex" unicode="&#xc2;" horiz-adv-x="1243" 
d="M341 366l-93 -278q-19 -59 -37 -77q-20 -20 -58 -20t-68 22t-30 59q0 21 17 67l403 1129q20 56 47 82q34 34 99 34t99 -34q28 -28 47 -82l405 -1127q17 -46 17 -65q0 -39 -32.5 -62t-71.5 -23q-37 0 -59 22q-17 16 -36 72l-97 281h-552zM389 517h454l-165 474l-64 200h-4
q-26 -92 -62 -200zM607 1653l-189 -140q-25 -18 -44 -18q-23 0 -41.5 18.5t-18.5 42.5q0 23 27 49l189 178q45 42 86 42q43 0 86 -41l184 -180q22 -22 22 -43q0 -27 -19.5 -45.5t-45.5 -18.5q-22 0 -45 18z" />
    <glyph glyph-name="Atilde" unicode="&#xc3;" horiz-adv-x="1243" 
d="M341 366l-93 -278q-19 -59 -37 -77q-20 -20 -58 -20t-68 22t-30 59q0 21 17 67l403 1129q20 56 47 82q34 34 99 34t99 -34q28 -28 47 -82l405 -1127q17 -46 17 -65q0 -39 -32.5 -62t-71.5 -23q-37 0 -59 22q-17 16 -36 72l-97 281h-552zM389 517h454l-165 474l-64 200h-4
q-26 -92 -62 -200zM470 1628q-28 0 -50.5 -12.5t-34 -27.5t-28.5 -27.5t-36 -12.5q-23 0 -39 15t-16 42q0 53 62 111t152 58q45 0 89 -15.5t72.5 -33.5t63.5 -33.5t64 -15.5q28 0 50.5 12.5t34.5 28t29 28t36 12.5q23 0 38.5 -15.5t15.5 -42.5q0 -53 -62 -110.5t-152 -57.5
q-44 0 -88 15t-73 33.5t-64 33.5t-64 15z" />
    <glyph glyph-name="Adieresis" unicode="&#xc4;" horiz-adv-x="1243" 
d="M341 366l-93 -278q-19 -59 -37 -77q-20 -20 -58 -20t-68 22t-30 59q0 21 17 67l403 1129q20 56 47 82q34 34 99 34t99 -34q28 -28 47 -82l405 -1127q17 -46 17 -65q0 -39 -32.5 -62t-71.5 -23q-37 0 -59 22q-17 16 -36 72l-97 281h-552zM389 517h454l-165 474l-64 200h-4
q-26 -92 -62 -200zM281 1650q0 51 34.5 85.5t85.5 34.5q52 0 85 -32.5t33 -83.5q0 -52 -34 -87t-86 -35t-85 33t-33 85zM709 1650q0 51 35 85.5t87 34.5q51 0 83.5 -32.5t32.5 -83.5q0 -52 -34 -87t-85 -35q-52 0 -85.5 33t-33.5 85z" />
    <glyph glyph-name="Aring" unicode="&#xc5;" horiz-adv-x="1243" 
d="M341 366l-93 -278q-19 -59 -37 -77q-20 -20 -58 -20t-68 22t-30 59q0 21 17 67l403 1129q20 56 47 82q34 34 99 34t99 -34q28 -28 47 -82l405 -1127q17 -46 17 -65q0 -39 -32.5 -62t-71.5 -23q-37 0 -59 22q-17 16 -36 72l-97 281h-552zM389 517h454l-165 474l-64 200h-4
q-26 -92 -62 -200zM361 1715q0 98 73 164.5t184 66.5t180 -62.5t69 -160.5t-73 -165t-184 -67q-112 0 -180.5 63t-68.5 161zM481 1719q0 -59 36 -95t97 -36t97 36t36 95t-36 94.5t-97 35.5t-97 -35.5t-36 -94.5z" />
    <glyph glyph-name="AE" unicode="&#xc6;" horiz-adv-x="1741" 
d="M363 366l-169 -287q-28 -49 -44 -65q-23 -23 -58 -23t-63.5 24t-28.5 62q0 18 7 34t30 54l682 1135q27 45 55 61.5t77 16.5h726q33 0 52 -20t19 -56q0 -38 -18.5 -58.5t-52.5 -20.5h-525v-438h453q33 0 51.5 -20t18.5 -57t-18.5 -57t-51.5 -20h-453v-476h529q33 0 52 -20
t19 -58q0 -37 -19 -57t-52 -20h-627q-43 0 -66.5 23.5t-23.5 66.5v276h-501zM449 517h415v706h-3z" />
    <glyph glyph-name="Ccedilla" unicode="&#xc7;" horiz-adv-x="1193" 
d="M565 -160l38 154q-218 35 -357.5 206.5t-139.5 446.5q0 174 48.5 315.5t135.5 236t208 145.5t264 51q114 0 197 -30.5t117 -64.5q29 -29 29 -68q0 -32 -19.5 -51.5t-51.5 -19.5q-17 0 -43 12t-53 26.5t-79.5 26.5t-116.5 12q-93 0 -173 -37t-140.5 -106.5t-95 -178.5
t-34.5 -245q0 -248 126.5 -388t331.5 -140q78 0 138.5 18.5t97 36.5t54.5 18q27 0 44.5 -18.5t17.5 -46.5q0 -34 -28 -63q-40 -40 -135.5 -72.5t-222.5 -31.5l-23 -89q76 -9 121 -51.5t45 -115.5q0 -95 -75 -157.5t-207 -62.5q-65 0 -94.5 20t-29.5 50q0 23 13.5 37t38.5 14
q8 0 26.5 -1.5t28.5 -1.5q137 0 137 87q0 69 -89 69h-13q-24 0 -34 15t-3 43z" />
    <glyph glyph-name="Egrave" unicode="&#xc8;" horiz-adv-x="1070" 
d="M381 631v-476h529q33 0 52 -20t19 -58q0 -37 -19 -57t-52 -20h-627q-43 0 -66.5 23.5t-23.5 66.5v1198q0 43 23.5 66.5t66.5 23.5h623q33 0 52 -20t19 -56q0 -38 -18.5 -58.5t-52.5 -20.5h-525v-438h453q33 0 51.5 -20t18.5 -57t-18.5 -57t-51.5 -20h-453zM577 1506
l-248 165q-39 26 -39 58q0 37 29 71t66 34q25 0 50 -23l223 -203q28 -24 28 -49q0 -26 -19.5 -47t-47.5 -21q-19 0 -42 15z" />
    <glyph glyph-name="Eacute" unicode="&#xc9;" horiz-adv-x="1070" 
d="M381 631v-476h529q33 0 52 -20t19 -58q0 -37 -19 -57t-52 -20h-627q-43 0 -66.5 23.5t-23.5 66.5v1198q0 43 23.5 66.5t66.5 23.5h623q33 0 52 -20t19 -56q0 -38 -18.5 -58.5t-52.5 -20.5h-525v-438h453q33 0 51.5 -20t18.5 -57t-18.5 -57t-51.5 -20h-453zM514 1608
l222 203q25 23 50 23q37 0 66.5 -34t29.5 -71q0 -31 -40 -58l-247 -165q-23 -15 -43 -15q-28 0 -47.5 21t-19.5 47q0 24 29 49z" />
    <glyph glyph-name="Ecircumflex" unicode="&#xca;" horiz-adv-x="1070" 
d="M381 631v-476h529q33 0 52 -20t19 -58q0 -37 -19 -57t-52 -20h-627q-43 0 -66.5 23.5t-23.5 66.5v1198q0 43 23.5 66.5t66.5 23.5h623q33 0 52 -20t19 -56q0 -38 -18.5 -58.5t-52.5 -20.5h-525v-438h453q33 0 51.5 -20t18.5 -57t-18.5 -57t-51.5 -20h-453zM577 1653
l-189 -140q-25 -18 -44 -18q-23 0 -41.5 18.5t-18.5 42.5q0 23 27 49l189 178q45 42 86 42q43 0 86 -41l184 -180q22 -22 22 -43q0 -27 -19.5 -45.5t-45.5 -18.5q-22 0 -45 18z" />
    <glyph glyph-name="Edieresis" unicode="&#xcb;" horiz-adv-x="1070" 
d="M381 631v-476h529q33 0 52 -20t19 -58q0 -37 -19 -57t-52 -20h-627q-43 0 -66.5 23.5t-23.5 66.5v1198q0 43 23.5 66.5t66.5 23.5h623q33 0 52 -20t19 -56q0 -38 -18.5 -58.5t-52.5 -20.5h-525v-438h453q33 0 51.5 -20t18.5 -57t-18.5 -57t-51.5 -20h-453zM240 1650
q0 51 34.5 85.5t85.5 34.5q52 0 85 -32.5t33 -83.5q0 -52 -34 -87t-86 -35t-85 33t-33 85zM668 1650q0 51 35 85.5t87 34.5q51 0 83.5 -32.5t32.5 -83.5q0 -52 -34 -87t-85 -35q-52 0 -85.5 33t-33.5 85z" />
    <glyph glyph-name="Igrave" unicode="&#xcc;" horiz-adv-x="574" 
d="M193 77v1224q0 83 94 83t94 -83v-1224q0 -83 -94 -83t-94 83zM307 1506l-248 165q-39 26 -39 58q0 37 29 71t66 34q25 0 50 -23l223 -203q28 -24 28 -49q0 -26 -19.5 -47t-47.5 -21q-19 0 -42 15z" />
    <glyph glyph-name="Iacute" unicode="&#xcd;" horiz-adv-x="574" 
d="M193 77v1224q0 83 94 83t94 -83v-1224q0 -83 -94 -83t-94 83zM178 1608l222 203q25 23 50 23q37 0 66.5 -34t29.5 -71q0 -31 -40 -58l-247 -165q-22 -15 -43 -15q-28 0 -47.5 21t-19.5 47q0 24 29 49z" />
    <glyph glyph-name="Icircumflex" unicode="&#xce;" horiz-adv-x="574" 
d="M193 77v1224q0 83 94 83t94 -83v-1224q0 -83 -94 -83t-94 83zM282 1653l-189 -140q-25 -18 -44 -18q-23 0 -41.5 18.5t-18.5 42.5q0 23 27 49l189 178q45 42 86 42q43 0 86 -41l184 -180q22 -22 22 -43q0 -27 -19.5 -45.5t-45.5 -18.5q-22 0 -45 18z" />
    <glyph glyph-name="Idieresis" unicode="&#xcf;" horiz-adv-x="574" 
d="M193 77v1224q0 83 94 83t94 -83v-1224q0 -83 -94 -83t-94 83zM-45 1650q0 51 34.5 85.5t85.5 34.5q52 0 85 -32.5t33 -83.5q0 -52 -34 -87t-86 -35t-85 33t-33 85zM383 1650q0 51 35 85.5t87 34.5q51 0 83.5 -32.5t32.5 -83.5q0 -52 -34 -87t-85 -35q-52 0 -85.5 33
t-33.5 85z" />
    <glyph glyph-name="Eth" unicode="&#xd0;" horiz-adv-x="1421" 
d="M220 652h-108q-30 0 -48 19t-18 53t18 53t48 19h108v492q0 43 24 66.5t67 23.5h320q335 0 511.5 -171t176.5 -488q0 -337 -190 -528t-524 -191h-294q-43 0 -67 23.5t-24 66.5v562zM408 652v-498h210q237 0 373 142.5t136 401.5q0 261 -129.5 393.5t-379.5 132.5h-210
v-428h258q30 0 48 -19t18 -53t-18 -53t-48 -19h-258z" />
    <glyph glyph-name="Ntilde" unicode="&#xd1;" horiz-adv-x="1490" 
d="M193 73v1179q0 132 133 132q55 0 87 -25t67 -80l536 -843q28 -45 57.5 -97t44.5 -81l16 -29l4 2q-11 121 -12 242l-5 832q0 37 22.5 58t65.5 21q88 0 88 -79v-1178q0 -133 -133 -133q-55 0 -87 25t-67 80l-536 843q-28 45 -57.5 97t-44.5 81l-16 29l-4 -2
q11 -121 12 -242l5 -832q0 -79 -88 -79t-88 79zM610 1628q-28 0 -50.5 -12.5t-34 -27.5t-28.5 -27.5t-36 -12.5q-23 0 -39 15t-16 42q0 53 62 111t152 58q45 0 89 -15.5t72.5 -33.5t63.5 -33.5t64 -15.5q28 0 50.5 12.5t34.5 28t29 28t36 12.5q23 0 38.5 -15.5t15.5 -42.5
q0 -53 -62 -110.5t-152 -57.5q-44 0 -88 15t-73 33.5t-64 33.5t-64 15z" />
    <glyph glyph-name="Ograve" unicode="&#xd2;" horiz-adv-x="1488" 
d="M106 671q0 337 179.5 532t470.5 195q282 0 454 -184.5t172 -505.5q0 -337 -180 -532t-470 -195q-282 0 -454 184.5t-172 505.5zM299 691q0 -258 126.5 -405.5t320.5 -147.5q193 0 318 146t125 403q0 130 -35 236t-95.5 175t-141.5 106t-175 37q-193 0 -318 -146
t-125 -404zM735 1506l-248 165q-39 26 -39 58q0 37 29 71t66 34q25 0 50 -23l223 -203q28 -24 28 -49q0 -26 -19.5 -47t-47.5 -21q-19 0 -42 15z" />
    <glyph glyph-name="Oacute" unicode="&#xd3;" horiz-adv-x="1488" 
d="M106 671q0 337 179.5 532t470.5 195q282 0 454 -184.5t172 -505.5q0 -337 -180 -532t-470 -195q-282 0 -454 184.5t-172 505.5zM299 691q0 -258 126.5 -405.5t320.5 -147.5q193 0 318 146t125 403q0 130 -35 236t-95.5 175t-141.5 106t-175 37q-193 0 -318 -146
t-125 -404zM651 1608l222 203q25 23 50 23q37 0 66.5 -34t29.5 -71q0 -31 -40 -58l-247 -165q-22 -15 -43 -15q-28 0 -47.5 21t-19.5 47q0 24 29 49z" />
    <glyph glyph-name="Ocircumflex" unicode="&#xd4;" horiz-adv-x="1488" 
d="M106 671q0 337 179.5 532t470.5 195q282 0 454 -184.5t172 -505.5q0 -337 -180 -532t-470 -195q-282 0 -454 184.5t-172 505.5zM299 691q0 -258 126.5 -405.5t320.5 -147.5q193 0 318 146t125 403q0 130 -35 236t-95.5 175t-141.5 106t-175 37q-193 0 -318 -146
t-125 -404zM746 1653l-189 -140q-25 -18 -44 -18q-23 0 -41.5 18.5t-18.5 42.5q0 23 27 49l189 178q45 42 86 42q43 0 86 -41l184 -180q22 -22 22 -43q0 -27 -19.5 -45.5t-45.5 -18.5q-22 0 -45 18z" />
    <glyph glyph-name="Otilde" unicode="&#xd5;" horiz-adv-x="1488" 
d="M106 671q0 337 179.5 532t470.5 195q282 0 454 -184.5t172 -505.5q0 -337 -180 -532t-470 -195q-282 0 -454 184.5t-172 505.5zM299 691q0 -258 126.5 -405.5t320.5 -147.5q193 0 318 146t125 403q0 130 -35 236t-95.5 175t-141.5 106t-175 37q-193 0 -318 -146
t-125 -404zM594 1628q-28 0 -50.5 -12.5t-34 -27.5t-28.5 -27.5t-36 -12.5q-23 0 -39 15t-16 42q0 53 62 111t152 58q45 0 89 -15.5t72.5 -33.5t63.5 -33.5t64 -15.5q28 0 50.5 12.5t34.5 28t29 28t36 12.5q23 0 38.5 -15.5t15.5 -42.5q0 -53 -62 -110.5t-152 -57.5
q-44 0 -88 15t-73 33.5t-64 33.5t-64 15z" />
    <glyph glyph-name="Odieresis" unicode="&#xd6;" horiz-adv-x="1488" 
d="M106 671q0 337 179.5 532t470.5 195q282 0 454 -184.5t172 -505.5q0 -337 -180 -532t-470 -195q-282 0 -454 184.5t-172 505.5zM299 691q0 -258 126.5 -405.5t320.5 -147.5q193 0 318 146t125 403q0 130 -35 236t-95.5 175t-141.5 106t-175 37q-193 0 -318 -146
t-125 -404zM408 1650q0 51 34.5 85.5t85.5 34.5q52 0 85 -32.5t33 -83.5q0 -52 -34 -87t-86 -35t-85 33t-33 85zM836 1650q0 51 35 85.5t87 34.5q51 0 83.5 -32.5t32.5 -83.5q0 -52 -34 -87t-85 -35q-52 0 -85.5 33t-33.5 85z" />
    <glyph glyph-name="multiply" unicode="&#xd7;" horiz-adv-x="1168" 
d="M481 578l-267 267q-27 27 -27 53q0 31 24.5 55.5t55.5 24.5q25 0 50 -25l270 -270l265 266q27 27 53 27q29 0 52 -23t23 -52q0 -25 -29 -54l-264 -264l267 -267q27 -27 27 -54q0 -30 -24.5 -54.5t-55.5 -24.5q-25 0 -50 25l-270 270l-265 -266q-27 -27 -53 -27
q-29 0 -52 23t-23 52q0 24 29 55z" />
    <glyph glyph-name="Oslash" unicode="&#xd8;" horiz-adv-x="1514" 
d="M482 32l-88 -158q-25 -45 -36 -56q-17 -17 -44 -17q-32 0 -59 22.5t-27 53.5q0 18 29 69l88 160q-239 190 -239 565q0 338 181.5 532.5t481.5 194.5q145 0 264 -50l87 156q25 45 36 56q15 17 44 17q32 0 59 -22.5t27 -53.5q0 -17 -29 -69l-88 -160q115 -88 176.5 -232.5
t61.5 -331.5q0 -338 -181.5 -532.5t-480.5 -194.5q-150 0 -263 51zM439 271l514 928q-86 45 -198 45q-204 0 -332 -146.5t-128 -406.5q0 -270 144 -420zM1075 1109l-514 -929q86 -45 198 -45q204 0 332 146t128 406q0 270 -144 422z" />
    <glyph glyph-name="Ugrave" unicode="&#xd9;" horiz-adv-x="1421" 
d="M180 539v762q0 83 94 83t94 -83v-734q0 -218 93.5 -323.5t255.5 -105.5q152 0 244 101t92 301v761q0 83 93 83q94 0 94 -83v-735q0 -289 -142 -437t-395 -148t-388 140.5t-135 417.5zM683 1506l-248 165q-39 26 -39 58q0 37 29 71t66 34q25 0 50 -23l223 -203
q28 -24 28 -49q0 -26 -19.5 -47t-47.5 -21q-19 0 -42 15z" />
    <glyph glyph-name="Uacute" unicode="&#xda;" horiz-adv-x="1421" 
d="M180 539v762q0 83 94 83t94 -83v-734q0 -218 93.5 -323.5t255.5 -105.5q152 0 244 101t92 301v761q0 83 93 83q94 0 94 -83v-735q0 -289 -142 -437t-395 -148t-388 140.5t-135 417.5zM649 1608l222 203q25 23 50 23q37 0 66.5 -34t29.5 -71q0 -31 -40 -58l-247 -165
q-22 -15 -43 -15q-28 0 -47.5 21t-19.5 47q0 24 29 49z" />
    <glyph glyph-name="Ucircumflex" unicode="&#xdb;" horiz-adv-x="1421" 
d="M180 539v762q0 83 94 83t94 -83v-734q0 -218 93.5 -323.5t255.5 -105.5q152 0 244 101t92 301v761q0 83 93 83q94 0 94 -83v-735q0 -289 -142 -437t-395 -148t-388 140.5t-135 417.5zM711 1653l-189 -140q-25 -18 -44 -18q-23 0 -41.5 18.5t-18.5 42.5q0 23 27 49
l189 178q45 42 86 42q43 0 86 -41l184 -180q22 -22 22 -43q0 -27 -19.5 -45.5t-45.5 -18.5q-22 0 -45 18z" />
    <glyph glyph-name="Udieresis" unicode="&#xdc;" horiz-adv-x="1421" 
d="M180 539v762q0 83 94 83t94 -83v-734q0 -218 93.5 -323.5t255.5 -105.5q152 0 244 101t92 301v761q0 83 93 83q94 0 94 -83v-735q0 -289 -142 -437t-395 -148t-388 140.5t-135 417.5zM382 1650q0 51 34.5 85.5t85.5 34.5q52 0 85 -32.5t33 -83.5q0 -52 -34 -87t-86 -35
t-85 33t-33 85zM810 1650q0 51 35 85.5t87 34.5q51 0 83.5 -32.5t32.5 -83.5q0 -52 -34 -87t-85 -35q-52 0 -85.5 33t-33.5 85z" />
    <glyph glyph-name="Yacute" unicode="&#xdd;" horiz-adv-x="1110" 
d="M459 574l-385 635q-22 35 -29 51t-7 34q0 40 33.5 66.5t71.5 26.5q33 0 54 -21q13 -13 41 -62l266 -457l58 -109h4q25 55 58 114l253 451q27 48 41 62q22 22 54 22q38 0 68.5 -26t30.5 -64q0 -24 -35 -82l-389 -641v-497q0 -83 -94 -83t-94 83v497zM488 1608l222 203
q25 23 50 23q37 0 66.5 -34t29.5 -71q0 -31 -40 -58l-247 -165q-23 -15 -43 -15q-28 0 -47.5 21t-19.5 47q0 24 29 49z" />
    <glyph glyph-name="Thorn" unicode="&#xde;" horiz-adv-x="1114" 
d="M380 286v-212q0 -80 -94 -80q-93 0 -93 83v1225q0 82 93 82q94 0 94 -80v-186h177q244 0 366 -104t122 -291q0 -199 -133.5 -318t-378.5 -119h-153zM380 438h167q148 0 226.5 71t78.5 197q0 259 -307 259h-165v-527z" />
    <glyph glyph-name="germandbls" unicode="&#xdf;" horiz-adv-x="1208" 
d="M174 76v991q0 204 118 316t341 112q164 0 254.5 -77.5t90.5 -201.5q0 -67 -25.5 -124t-62 -95.5t-73.5 -72.5t-62.5 -70.5t-25.5 -73.5q0 -41 23 -72.5t60 -54t81.5 -43.5t88.5 -47.5t81 -58.5t60 -84t23 -118q0 -140 -100.5 -230t-273.5 -90q-169 0 -226 59
q-26 24 -26 61q0 29 18.5 47.5t46.5 18.5q16 0 41 -10.5t65 -21t93 -10.5q86 0 133.5 42.5t47.5 113.5q0 43 -23 76t-60 55.5t-81.5 43.5t-88.5 46t-81 56.5t-60 81.5t-23 115q0 60 25.5 111.5t61.5 88t72 70.5t61.5 75t25.5 86q0 76 -49 117.5t-150 41.5q-112 0 -175 -67.5
t-63 -192.5v-1010q0 -82 -92 -82q-91 0 -91 82z" />
    <glyph glyph-name="agrave" unicode="&#xe0;" horiz-adv-x="1074" 
d="M726 262v126q-78 24 -188 24q-248 0 -248 -135q0 -66 50 -109t139 -43q44 0 85.5 14t69.5 34t50 40.5t32 34.5zM726 519v123q0 125 -54.5 179t-183.5 54q-69 0 -126.5 -15t-92.5 -30t-51 -15q-28 0 -45 17.5t-17 47.5t22 53q33 32 132 62t217 30q190 0 286 -88.5
t96 -257.5v-370q0 -105 12 -174t12 -73q0 -31 -21.5 -51t-57.5 -20q-84 0 -109 130h-3q-4 -6 -12.5 -15t-37 -33t-61 -42.5t-84.5 -33.5t-108 -15q-156 0 -246 80.5t-90 206.5q0 132 109.5 202.5t305.5 70.5q58 0 110 -6t75 -12zM514 1173l-199 204q-29 27 -29 52
q0 38 33 67t70 29q31 0 56 -35l168 -235q20 -26 20 -43q0 -26 -20.5 -45.5t-48.5 -19.5q-25 0 -50 26z" />
    <glyph glyph-name="aacute" unicode="&#xe1;" horiz-adv-x="1074" 
d="M726 262v126q-78 24 -188 24q-248 0 -248 -135q0 -66 50 -109t139 -43q44 0 85.5 14t69.5 34t50 40.5t32 34.5zM726 519v123q0 125 -54.5 179t-183.5 54q-69 0 -126.5 -15t-92.5 -30t-51 -15q-28 0 -45 17.5t-17 47.5t22 53q33 32 132 62t217 30q190 0 286 -88.5
t96 -257.5v-370q0 -105 12 -174t12 -73q0 -31 -21.5 -51t-57.5 -20q-84 0 -109 130h-3q-4 -6 -12.5 -15t-37 -33t-61 -42.5t-84.5 -33.5t-108 -15q-156 0 -246 80.5t-90 206.5q0 132 109.5 202.5t305.5 70.5q58 0 110 -6t75 -12zM459 1255l168 235q25 35 57 35
q36 0 69.5 -29t33.5 -67q0 -24 -30 -52l-199 -204q-25 -26 -50 -26q-28 0 -48 19.5t-20 45.5q0 18 19 43z" />
    <glyph glyph-name="acircumflex" unicode="&#xe2;" horiz-adv-x="1074" 
d="M726 262v126q-78 24 -188 24q-248 0 -248 -135q0 -66 50 -109t139 -43q44 0 85.5 14t69.5 34t50 40.5t32 34.5zM726 519v123q0 125 -54.5 179t-183.5 54q-69 0 -126.5 -15t-92.5 -30t-51 -15q-28 0 -45 17.5t-17 47.5t22 53q33 32 132 62t217 30q190 0 286 -88.5
t96 -257.5v-370q0 -105 12 -174t12 -73q0 -31 -21.5 -51t-57.5 -20q-84 0 -109 130h-3q-4 -6 -12.5 -15t-37 -33t-61 -42.5t-84.5 -33.5t-108 -15q-156 0 -246 80.5t-90 206.5q0 132 109.5 202.5t305.5 70.5q58 0 110 -6t75 -12zM526 1330l-179 -158q-23 -19 -43 -19
q-24 0 -43 18.5t-19 42.5q0 19 23 42l189 206q39 42 81 42q44 0 80 -41l181 -202q23 -25 23 -44q0 -26 -20 -45t-46 -19q-20 0 -47 21z" />
    <glyph glyph-name="atilde" unicode="&#xe3;" horiz-adv-x="1074" 
d="M726 262v126q-78 24 -188 24q-248 0 -248 -135q0 -66 50 -109t139 -43q44 0 85.5 14t69.5 34t50 40.5t32 34.5zM726 519v123q0 125 -54.5 179t-183.5 54q-69 0 -126.5 -15t-92.5 -30t-51 -15q-28 0 -45 17.5t-17 47.5t22 53q33 32 132 62t217 30q190 0 286 -88.5
t96 -257.5v-370q0 -105 12 -174t12 -73q0 -31 -21.5 -51t-57.5 -20q-84 0 -109 130h-3q-4 -6 -12.5 -15t-37 -33t-61 -42.5t-84.5 -33.5t-108 -15q-156 0 -246 80.5t-90 206.5q0 132 109.5 202.5t305.5 70.5q58 0 110 -6t75 -12zM391 1298q-29 0 -51.5 -13.5t-34 -29
t-29 -29t-38.5 -13.5q-24 0 -40.5 15.5t-16.5 41.5q0 58 64.5 115.5t155.5 57.5q45 0 87.5 -16.5t69 -36.5t57.5 -36.5t56 -16.5q29 0 51.5 13.5t34 29.5t29.5 29.5t39 13.5q23 0 39.5 -15.5t16.5 -41.5q0 -58 -64.5 -115.5t-155.5 -57.5q-45 0 -87.5 16.5t-69 36t-57.5 36
t-56 16.5z" />
    <glyph glyph-name="adieresis" unicode="&#xe4;" horiz-adv-x="1074" 
d="M726 262v126q-78 24 -188 24q-248 0 -248 -135q0 -66 50 -109t139 -43q44 0 85.5 14t69.5 34t50 40.5t32 34.5zM726 519v123q0 125 -54.5 179t-183.5 54q-69 0 -126.5 -15t-92.5 -30t-51 -15q-28 0 -45 17.5t-17 47.5t22 53q33 32 132 62t217 30q190 0 286 -88.5
t96 -257.5v-370q0 -105 12 -174t12 -73q0 -31 -21.5 -51t-57.5 -20q-84 0 -109 130h-3q-4 -6 -12.5 -15t-37 -33t-61 -42.5t-84.5 -33.5t-108 -15q-156 0 -246 80.5t-90 206.5q0 132 109.5 202.5t305.5 70.5q58 0 110 -6t75 -12zM204 1318q0 50 34.5 84.5t85.5 34.5
q52 0 84.5 -32.5t32.5 -82.5q0 -51 -34 -86t-85 -35q-52 0 -85 32.5t-33 84.5zM605 1318q0 50 34.5 84.5t86.5 34.5q51 0 83.5 -32.5t32.5 -82.5q0 -51 -33.5 -86t-84.5 -35q-53 0 -86 32.5t-33 84.5z" />
    <glyph glyph-name="aring" unicode="&#xe5;" horiz-adv-x="1074" 
d="M726 262v126q-78 24 -188 24q-248 0 -248 -135q0 -66 50 -109t139 -43q44 0 85.5 14t69.5 34t50 40.5t32 34.5zM726 519v123q0 125 -54.5 179t-183.5 54q-69 0 -126.5 -15t-92.5 -30t-51 -15q-28 0 -45 17.5t-17 47.5t22 53q33 32 132 62t217 30q190 0 286 -88.5
t96 -257.5v-370q0 -105 12 -174t12 -73q0 -31 -21.5 -51t-57.5 -20q-84 0 -109 130h-3q-4 -6 -12.5 -15t-37 -33t-61 -42.5t-84.5 -33.5t-108 -15q-156 0 -246 80.5t-90 206.5q0 132 109.5 202.5t305.5 70.5q58 0 110 -6t75 -12zM287 1344q0 98 71 164t179 66t175 -62
t67 -159q0 -98 -70.5 -164.5t-179.5 -66.5t-175.5 62t-66.5 160zM406 1348q0 -59 34.5 -93.5t92.5 -34.5t92.5 34.5t34.5 94.5q0 58 -34.5 92.5t-92.5 34.5t-92.5 -34.5t-34.5 -93.5z" />
    <glyph glyph-name="ae" unicode="&#xe6;" horiz-adv-x="1687" 
d="M753 261q-23 51 -33 128q-77 23 -182 23q-248 0 -248 -135q0 -66 51 -109t142 -43q47 0 92 14t76 34t55 40t36 34zM722 519v123q0 124 -54.5 178.5t-179.5 54.5q-69 0 -126.5 -15t-92.5 -30t-51 -15q-28 0 -45 17.5t-17 47.5t22 53q33 32 132 62t217 30q246 0 321 -161
q52 73 139 117.5t201 44.5q177 0 285.5 -115.5t108.5 -313.5q0 -113 -105 -113h-578v-7q4 -161 93.5 -253t235.5 -92q67 0 120 13t85 25.5t48 12.5q27 0 43 -17t16 -42q0 -32 -26 -58q-31 -31 -116 -58t-200 -27q-129 0 -225.5 45t-156.5 124l-8 -8q-7 -8 -17 -17l-25 -22.5
t-33.5 -26.5t-41.5 -27t-50.5 -25.5t-57.5 -21t-66 -15t-73 -5.5q-159 0 -250 80t-91 207q0 132 109.5 202.5t305.5 70.5q56 0 107 -6t74 -12zM907 615h503q-28 270 -244 270q-95 0 -165.5 -68.5t-93.5 -201.5z" />
    <glyph glyph-name="ccedilla" unicode="&#xe7;" horiz-adv-x="923" 
d="M414 -160l38 154q-163 35 -258.5 160.5t-95.5 311.5q0 258 141.5 409t369.5 151q82 0 138.5 -19.5t79.5 -43.5q25 -24 25 -62q0 -28 -18 -47t-47 -19q-14 0 -71.5 21t-122.5 21q-134 0 -220.5 -102t-86.5 -285q0 -167 88 -262.5t232 -95.5q67 0 124.5 19.5t68.5 19.5
q26 0 42 -17t16 -43q0 -32 -27 -59q-28 -29 -97.5 -49.5t-160.5 -21.5l-23 -86q77 -9 122 -51.5t45 -115.5q0 -94 -75.5 -157t-206.5 -63q-66 0 -95.5 20t-29.5 50q0 23 13.5 37t38.5 14q8 0 26.5 -1.5t28.5 -1.5q137 0 137 87q0 69 -88 69h-13q-52 0 -38 58z" />
    <glyph glyph-name="egrave" unicode="&#xe8;" horiz-adv-x="1070" 
d="M860 484h-578v-7q4 -161 93.5 -253t235.5 -92q67 0 120 13t85 25.5t48 12.5q27 0 43 -17t16 -42q0 -32 -26 -58q-31 -31 -116 -58t-200 -27q-220 0 -351.5 132.5t-131.5 357.5q0 260 131.5 407.5t341.5 147.5q177 0 285.5 -115.5t108.5 -313.5q0 -113 -105 -113zM290 615
h503q-28 270 -244 270q-95 0 -165.5 -68.5t-93.5 -201.5zM522 1173l-199 204q-29 27 -29 52q0 38 33 67t70 29q31 0 56 -35l168 -235q20 -26 20 -43q0 -26 -20.5 -45.5t-48.5 -19.5q-25 0 -50 26z" />
    <glyph glyph-name="eacute" unicode="&#xe9;" horiz-adv-x="1070" 
d="M860 484h-578v-7q4 -161 93.5 -253t235.5 -92q67 0 120 13t85 25.5t48 12.5q27 0 43 -17t16 -42q0 -32 -26 -58q-31 -31 -116 -58t-200 -27q-220 0 -351.5 132.5t-131.5 357.5q0 260 131.5 407.5t341.5 147.5q177 0 285.5 -115.5t108.5 -313.5q0 -113 -105 -113zM290 615
h503q-28 270 -244 270q-95 0 -165.5 -68.5t-93.5 -201.5zM457 1255l168 235q25 35 57 35q36 0 69.5 -29t33.5 -67q0 -24 -30 -52l-199 -204q-25 -26 -50 -26q-28 0 -48 19.5t-20 45.5q0 18 19 43z" />
    <glyph glyph-name="ecircumflex" unicode="&#xea;" horiz-adv-x="1070" 
d="M860 484h-578v-7q4 -161 93.5 -253t235.5 -92q67 0 120 13t85 25.5t48 12.5q27 0 43 -17t16 -42q0 -32 -26 -58q-31 -31 -116 -58t-200 -27q-220 0 -351.5 132.5t-131.5 357.5q0 260 131.5 407.5t341.5 147.5q177 0 285.5 -115.5t108.5 -313.5q0 -113 -105 -113zM290 615
h503q-28 270 -244 270q-95 0 -165.5 -68.5t-93.5 -201.5zM540 1330l-179 -158q-23 -19 -43 -19q-24 0 -43 18.5t-19 42.5q0 19 23 42l189 206q39 42 81 42q44 0 80 -41l181 -202q23 -25 23 -44q0 -26 -20 -45t-46 -19q-20 0 -47 21z" />
    <glyph glyph-name="edieresis" unicode="&#xeb;" horiz-adv-x="1070" 
d="M860 484h-578v-7q4 -161 93.5 -253t235.5 -92q67 0 120 13t85 25.5t48 12.5q27 0 43 -17t16 -42q0 -32 -26 -58q-31 -31 -116 -58t-200 -27q-220 0 -351.5 132.5t-131.5 357.5q0 260 131.5 407.5t341.5 147.5q177 0 285.5 -115.5t108.5 -313.5q0 -113 -105 -113zM290 615
h503q-28 270 -244 270q-95 0 -165.5 -68.5t-93.5 -201.5zM225 1318q0 50 34.5 84.5t85.5 34.5q52 0 84.5 -32.5t32.5 -82.5q0 -51 -34 -86t-85 -35q-52 0 -85 32.5t-33 84.5zM626 1318q0 50 34.5 84.5t86.5 34.5q51 0 83.5 -32.5t32.5 -82.5q0 -51 -33.5 -86t-84.5 -35
q-53 0 -86 32.5t-33 84.5z" />
    <glyph glyph-name="igrave" unicode="&#xec;" horiz-adv-x="530" 
d="M282 1173l-199 204q-29 27 -29 52q0 38 33 67t70 29q31 0 56 -35l168 -235q20 -26 20 -43q0 -26 -20.5 -45.5t-48.5 -19.5q-25 0 -50 26zM174 76v856q0 82 91 82q92 0 92 -82v-856q0 -82 -92 -82q-91 0 -91 82z" />
    <glyph glyph-name="iacute" unicode="&#xed;" horiz-adv-x="530" 
d="M140 1255l168 235q25 35 57 35q36 0 69.5 -29t33.5 -67q0 -24 -30 -52l-199 -204q-25 -26 -50 -26q-28 0 -48 19.5t-20 45.5q0 18 19 43zM174 76v856q0 82 91 82q92 0 92 -82v-856q0 -82 -92 -82q-91 0 -91 82z" />
    <glyph glyph-name="icircumflex" unicode="&#xee;" horiz-adv-x="530" 
d="M174 76v856q0 82 91 82q92 0 92 -82v-856q0 -82 -92 -82q-91 0 -91 82zM261 1330l-152 -149q-29 -28 -51 -28q-25 0 -43 17.5t-18 40.5q0 18 25 50l164 199q38 44 84 44q48 0 83 -43l161 -202q22 -27 22 -44q0 -25 -20.5 -43.5t-46.5 -18.5q-24 0 -52 27z" />
    <glyph glyph-name="idieresis" unicode="&#xef;" horiz-adv-x="530" 
d="M174 76v856q0 82 91 82q92 0 92 -82v-856q0 -82 -92 -82q-91 0 -91 82zM-40 1318q0 50 34 84.5t86 34.5q51 0 83.5 -32.5t32.5 -82.5q0 -51 -34 -85.5t-85 -34.5t-84 32.5t-33 83.5zM334 1318q0 50 34.5 84.5t85.5 34.5q52 0 84 -32.5t32 -82.5q0 -51 -33.5 -85.5
t-84.5 -34.5q-52 0 -85 32.5t-33 83.5z" />
    <glyph glyph-name="eth" unicode="&#xf0;" horiz-adv-x="1148" 
d="M849 1400l-104 -81q143 -125 221.5 -309.5t78.5 -405.5q0 -309 -131.5 -466t-358.5 -157q-208 0 -332.5 131.5t-124.5 361.5q0 251 143.5 395.5t372.5 144.5q45 0 84 -6.5t56 -13.5l17 -6q-68 140 -169 224l-140 -110q-23 -17 -43 -17q-27 0 -48 21.5t-21 49.5t34 55
l108 85q-45 27 -96 46.5t-61 30.5q-16 16 -16 42q0 32 23.5 53.5t64.5 21.5q39 0 105.5 -26t121.5 -61l136 106q21 17 43 17q27 0 47.5 -21.5t20.5 -50.5t-32 -54zM863 568q0 128 -28 245q-9 6 -26 15t-76 23.5t-124 14.5q-146 0 -235 -98t-89 -273q0 -177 78.5 -271
t208.5 -94q131 0 211 108t80 330z" />
    <glyph glyph-name="ntilde" unicode="&#xf1;" horiz-adv-x="1200" 
d="M174 76v864q0 36 19.5 56t56.5 20t56.5 -19.5t25.5 -60.5l9 -69h3q4 6 11.5 17t36 38.5t62 48.5t89 38t117.5 17q177 0 276.5 -106.5t99.5 -305.5v-538q0 -82 -91 -82q-92 0 -92 82v512q0 287 -235 287q-49 0 -93.5 -17.5t-74 -43t-51.5 -51t-32 -43.5l-10 -17v-627
q0 -82 -92 -82q-91 0 -91 82zM461 1298q-29 0 -51.5 -13.5t-34 -29t-29 -29t-38.5 -13.5q-24 0 -40.5 15.5t-16.5 41.5q0 58 64.5 115.5t155.5 57.5q45 0 87.5 -16.5t69 -36.5t57.5 -36.5t56 -16.5q29 0 51.5 13.5t34 29.5t29.5 29.5t39 13.5q23 0 39.5 -15.5t16.5 -41.5
q0 -58 -64.5 -115.5t-155.5 -57.5q-45 0 -87.5 16.5t-69 36t-57.5 36t-56 16.5z" />
    <glyph glyph-name="ograve" unicode="&#xf2;" horiz-adv-x="1177" 
d="M98 486q0 252 137 396t366 144q210 0 343.5 -138.5t133.5 -365.5q0 -252 -136.5 -396.5t-365.5 -144.5q-210 0 -344 139t-134 366zM286 506q0 -175 86.5 -275.5t218.5 -100.5q133 0 216.5 97.5t83.5 274.5q0 174 -86.5 275t-217.5 101q-134 0 -217.5 -97.5t-83.5 -274.5z
M570 1173l-199 204q-29 27 -29 52q0 38 33 67t70 29q31 0 56 -35l168 -235q20 -26 20 -43q0 -26 -20.5 -45.5t-48.5 -19.5q-25 0 -50 26z" />
    <glyph glyph-name="oacute" unicode="&#xf3;" horiz-adv-x="1177" 
d="M98 486q0 252 137 396t366 144q210 0 343.5 -138.5t133.5 -365.5q0 -252 -136.5 -396.5t-365.5 -144.5q-210 0 -344 139t-134 366zM286 506q0 -175 86.5 -275.5t218.5 -100.5q133 0 216.5 97.5t83.5 274.5q0 174 -86.5 275t-217.5 101q-134 0 -217.5 -97.5t-83.5 -274.5z
M482 1255l168 235q25 35 57 35q36 0 69.5 -29t33.5 -67q0 -24 -30 -52l-199 -204q-25 -26 -50 -26q-28 0 -48 19.5t-20 45.5q0 18 19 43z" />
    <glyph glyph-name="ocircumflex" unicode="&#xf4;" horiz-adv-x="1177" 
d="M98 486q0 252 137 396t366 144q210 0 343.5 -138.5t133.5 -365.5q0 -252 -136.5 -396.5t-365.5 -144.5q-210 0 -344 139t-134 366zM286 506q0 -175 86.5 -275.5t218.5 -100.5q133 0 216.5 97.5t83.5 274.5q0 174 -86.5 275t-217.5 101q-134 0 -217.5 -97.5t-83.5 -274.5z
M585 1330l-179 -158q-23 -19 -43 -19q-24 0 -43 18.5t-19 42.5q0 19 23 42l189 206q39 42 81 42q44 0 80 -41l181 -202q23 -25 23 -44q0 -26 -20 -45t-46 -19q-20 0 -47 21z" />
    <glyph glyph-name="otilde" unicode="&#xf5;" horiz-adv-x="1177" 
d="M98 486q0 252 137 396t366 144q210 0 343.5 -138.5t133.5 -365.5q0 -252 -136.5 -396.5t-365.5 -144.5q-210 0 -344 139t-134 366zM286 506q0 -175 86.5 -275.5t218.5 -100.5q133 0 216.5 97.5t83.5 274.5q0 174 -86.5 275t-217.5 101q-134 0 -217.5 -97.5t-83.5 -274.5z
M448 1298q-29 0 -51.5 -13.5t-34 -29t-29 -29t-38.5 -13.5q-24 0 -40.5 15.5t-16.5 41.5q0 58 64.5 115.5t155.5 57.5q45 0 87.5 -16.5t69 -36.5t57.5 -36.5t56 -16.5q29 0 51.5 13.5t34 29.5t29.5 29.5t39 13.5q23 0 39.5 -15.5t16.5 -41.5q0 -58 -64.5 -115.5
t-155.5 -57.5q-45 0 -87.5 16.5t-69 36t-57.5 36t-56 16.5z" />
    <glyph glyph-name="odieresis" unicode="&#xf6;" horiz-adv-x="1177" 
d="M98 486q0 252 137 396t366 144q210 0 343.5 -138.5t133.5 -365.5q0 -252 -136.5 -396.5t-365.5 -144.5q-210 0 -344 139t-134 366zM286 506q0 -175 86.5 -275.5t218.5 -100.5q133 0 216.5 97.5t83.5 274.5q0 174 -86.5 275t-217.5 101q-134 0 -217.5 -97.5t-83.5 -274.5z
M267 1318q0 50 34.5 84.5t85.5 34.5q52 0 84.5 -32.5t32.5 -82.5q0 -51 -34 -86t-85 -35q-52 0 -85 32.5t-33 84.5zM668 1318q0 50 34.5 84.5t86.5 34.5q51 0 83.5 -32.5t32.5 -82.5q0 -51 -33.5 -86t-84.5 -35q-53 0 -86 32.5t-33 84.5z" />
    <glyph glyph-name="divide" unicode="&#xf7;" horiz-adv-x="1168" 
d="M217 655h733q31 0 49.5 -20t18.5 -52t-18.5 -52t-49.5 -20h-733q-31 0 -49 20t-18 52t18 52t49 20zM476 266q0 46 31 77t77 31q47 0 77.5 -30.5t30.5 -77.5q0 -46 -30.5 -77t-77.5 -31q-46 0 -77 31t-31 77zM476 899q0 46 31 77t77 31t77 -31t31 -77q0 -47 -31 -77.5
t-77 -30.5t-77 30.5t-31 77.5z" />
    <glyph glyph-name="oslash" unicode="&#xf8;" horiz-adv-x="1180" 
d="M168 -54l89 149q-158 142 -158 391q0 252 136.5 396t366.5 144q108 0 192 -38l89 150q25 43 64 43q32 0 57 -21.5t25 -51.5q0 -17 -15 -44l-92 -152q159 -142 159 -390q0 -253 -137 -397t-367 -144q-98 0 -191 37l-87 -145q-26 -44 -65 -44q-31 0 -56 22t-25 51
q0 17 15 44zM827 760l-362 -604q56 -30 127 -30q139 0 224 98t85 278q0 156 -74 258zM353 247l362 605q-55 30 -127 30q-138 0 -223.5 -98t-85.5 -278q0 -158 74 -259z" />
    <glyph glyph-name="ugrave" unicode="&#xf9;" horiz-adv-x="1193" 
d="M164 393v539q0 82 92 82q91 0 91 -82v-512q0 -287 228 -287q49 0 93.5 17.5t74 43t51.5 51t32 43.5l10 17v627q0 82 92 82q91 0 91 -82v-864q0 -37 -19.5 -57t-56.5 -20q-70 0 -82 81l-9 69h-3q-4 -6 -11.5 -17t-36 -38.5t-62 -48.5t-89 -38t-117.5 -17
q-172 0 -270.5 106t-98.5 305zM556 1173l-199 204q-29 27 -29 52q0 38 33 67t70 29q31 0 56 -35l168 -235q20 -26 20 -43q0 -26 -20.5 -45.5t-48.5 -19.5q-25 0 -50 26z" />
    <glyph glyph-name="uacute" unicode="&#xfa;" horiz-adv-x="1193" 
d="M164 393v539q0 82 92 82q91 0 91 -82v-512q0 -287 228 -287q49 0 93.5 17.5t74 43t51.5 51t32 43.5l10 17v627q0 82 92 82q91 0 91 -82v-864q0 -37 -19.5 -57t-56.5 -20q-70 0 -82 81l-9 69h-3q-4 -6 -11.5 -17t-36 -38.5t-62 -48.5t-89 -38t-117.5 -17
q-172 0 -270.5 106t-98.5 305zM501 1255l168 235q25 35 57 35q36 0 69.5 -29t33.5 -67q0 -24 -30 -52l-199 -204q-25 -26 -50 -26q-28 0 -48 19.5t-20 45.5q0 18 19 43z" />
    <glyph glyph-name="ucircumflex" unicode="&#xfb;" horiz-adv-x="1193" 
d="M164 393v539q0 82 92 82q91 0 91 -82v-512q0 -287 228 -287q49 0 93.5 17.5t74 43t51.5 51t32 43.5l10 17v627q0 82 92 82q91 0 91 -82v-864q0 -37 -19.5 -57t-56.5 -20q-70 0 -82 81l-9 69h-3q-4 -6 -11.5 -17t-36 -38.5t-62 -48.5t-89 -38t-117.5 -17
q-172 0 -270.5 106t-98.5 305zM591 1330l-179 -158q-23 -19 -43 -19q-24 0 -43 18.5t-19 42.5q0 19 23 42l189 206q39 42 81 42q44 0 80 -41l181 -202q23 -25 23 -44q0 -26 -20 -45t-46 -19q-20 0 -47 21z" />
    <glyph glyph-name="udieresis" unicode="&#xfc;" horiz-adv-x="1193" 
d="M164 393v539q0 82 92 82q91 0 91 -82v-512q0 -287 228 -287q49 0 93.5 17.5t74 43t51.5 51t32 43.5l10 17v627q0 82 92 82q91 0 91 -82v-864q0 -37 -19.5 -57t-56.5 -20q-70 0 -82 81l-9 69h-3q-4 -6 -11.5 -17t-36 -38.5t-62 -48.5t-89 -38t-117.5 -17
q-172 0 -270.5 106t-98.5 305zM272 1318q0 50 34.5 84.5t85.5 34.5q52 0 84.5 -32.5t32.5 -82.5q0 -51 -34 -86t-85 -35q-52 0 -85 32.5t-33 84.5zM673 1318q0 50 34.5 84.5t86.5 34.5q51 0 83.5 -32.5t32.5 -82.5q0 -51 -33.5 -86t-84.5 -35q-53 0 -86 32.5t-33 84.5z" />
    <glyph glyph-name="yacute" unicode="&#xfd;" horiz-adv-x="1004" 
d="M405 -10l-338 875q-19 49 -19 66q0 38 32 62t69 24t56 -22q12 -13 32 -67l219 -597l50 -153h4q16 65 48 153l217 602q19 52 30 63q21 21 56 21q36 0 65.5 -21t29.5 -57q0 -17 -17 -60l-308 -792q-121 -311 -248.5 -440.5t-296.5 -129.5q-81 0 -114 33q-22 22 -22 58
q0 29 18 47t49 18q15 0 37.5 -2t36.5 -2q96 0 171.5 80.5t142.5 240.5zM438 1255l168 235q25 35 57 35q36 0 69.5 -29t33.5 -67q0 -24 -30 -52l-199 -204q-25 -26 -50 -26q-28 0 -48 19.5t-20 45.5q0 18 19 43z" />
    <glyph glyph-name="thorn" unicode="&#xfe;" horiz-adv-x="1167" 
d="M357 703v-536q8 -5 22.5 -11.5t66 -18t109.5 -11.5q149 0 238 100.5t89 285.5q0 363 -264 363q-49 0 -93.5 -17.5t-74 -43t-51.5 -51t-32 -43.5zM174 -397v1798q0 82 91 82q45 0 68.5 -21.5t23.5 -60.5v-386q0 -67 -7 -136h3q4 6 12 16t36 35t60.5 44.5t86 35.5t112.5 16
q188 0 298.5 -127t110.5 -369q0 -259 -142.5 -404t-393.5 -145q-44 0 -88 6t-66 12l-22 6l-3 -1q3 -60 3 -128v-273q0 -39 -23.5 -60.5t-68.5 -21.5q-91 0 -91 82z" />
    <glyph glyph-name="ydieresis" unicode="&#xff;" horiz-adv-x="1004" 
d="M405 -10l-338 875q-19 49 -19 66q0 38 32 62t69 24t56 -22q12 -13 32 -67l219 -597l50 -153h4q16 65 48 153l217 602q19 52 30 63q21 21 56 21q36 0 65.5 -21t29.5 -57q0 -17 -17 -60l-308 -792q-121 -311 -248.5 -440.5t-296.5 -129.5q-81 0 -114 33q-22 22 -22 58
q0 29 18 47t49 18q15 0 37.5 -2t36.5 -2q96 0 171.5 80.5t142.5 240.5zM188 1318q0 50 34.5 84.5t85.5 34.5q52 0 84.5 -32.5t32.5 -82.5q0 -51 -34 -86t-85 -35q-52 0 -85 32.5t-33 84.5zM589 1318q0 50 34.5 84.5t86.5 34.5q51 0 83.5 -32.5t32.5 -82.5q0 -51 -33.5 -86
t-84.5 -35q-53 0 -86 32.5t-33 84.5z" />
    <glyph glyph-name="Amacron" unicode="&#x100;" horiz-adv-x="1243" 
d="M341 366l-93 -278q-19 -59 -37 -77q-20 -20 -58 -20t-68 22t-30 59q0 21 17 67l403 1129q20 56 47 82q34 34 99 34t99 -34q28 -28 47 -82l405 -1127q17 -46 17 -65q0 -39 -32.5 -62t-71.5 -23q-37 0 -59 22q-17 16 -36 72l-97 281h-552zM389 517h454l-165 474l-64 200h-4
q-26 -92 -62 -200zM361 1717h508q66 0 66 -69q0 -70 -66 -70h-508q-65 0 -65 70q0 69 65 69z" />
    <glyph glyph-name="amacron" unicode="&#x101;" horiz-adv-x="1074" 
d="M726 262v126q-78 24 -188 24q-248 0 -248 -135q0 -66 50 -109t139 -43q44 0 85.5 14t69.5 34t50 40.5t32 34.5zM726 519v123q0 125 -54.5 179t-183.5 54q-69 0 -126.5 -15t-92.5 -30t-51 -15q-28 0 -45 17.5t-17 47.5t22 53q33 32 132 62t217 30q190 0 286 -88.5
t96 -257.5v-370q0 -105 12 -174t12 -73q0 -31 -21.5 -51t-57.5 -20q-84 0 -109 130h-3q-4 -6 -12.5 -15t-37 -33t-61 -42.5t-84.5 -33.5t-108 -15q-156 0 -246 80.5t-90 206.5q0 132 109.5 202.5t305.5 70.5q58 0 110 -6t75 -12zM283 1387h500q65 0 65 -69t-65 -69h-500
q-65 0 -65 69t65 69z" />
    <glyph glyph-name="Abreve" unicode="&#x102;" horiz-adv-x="1243" 
d="M341 366l-93 -278q-19 -59 -37 -77q-20 -20 -58 -20t-68 22t-30 59q0 21 17 67l403 1129q20 56 47 82q34 34 99 34t99 -34q28 -28 47 -82l405 -1127q17 -46 17 -65q0 -39 -32.5 -62t-71.5 -23q-37 0 -59 22q-17 16 -36 72l-97 281h-552zM389 517h454l-165 474l-64 200h-4
q-26 -92 -62 -200zM328 1754q0 34 18.5 52.5t49.5 18.5q55 0 64 -55q21 -127 156 -127q129 0 152 127q9 55 63 55q31 0 50 -18.5t19 -52.5q0 -104 -84.5 -178.5t-205.5 -74.5q-127 0 -204.5 73t-77.5 180z" />
    <glyph glyph-name="abreve" unicode="&#x103;" horiz-adv-x="1074" 
d="M726 262v126q-78 24 -188 24q-248 0 -248 -135q0 -66 50 -109t139 -43q44 0 85.5 14t69.5 34t50 40.5t32 34.5zM726 519v123q0 125 -54.5 179t-183.5 54q-69 0 -126.5 -15t-92.5 -30t-51 -15q-28 0 -45 17.5t-17 47.5t22 53q33 32 132 62t217 30q190 0 286 -88.5
t96 -257.5v-370q0 -105 12 -174t12 -73q0 -31 -21.5 -51t-57.5 -20q-84 0 -109 130h-3q-4 -6 -12.5 -15t-37 -33t-61 -42.5t-84.5 -33.5t-108 -15q-156 0 -246 80.5t-90 206.5q0 132 109.5 202.5t305.5 70.5q58 0 110 -6t75 -12zM253 1409q0 31 18.5 48.5t48.5 17.5
q54 0 61 -54q20 -139 151 -139q68 0 104.5 37.5t43.5 101.5q3 26 19.5 40t41.5 14q30 0 48.5 -17.5t18.5 -48.5q0 -113 -77.5 -188.5t-204.5 -75.5q-117 0 -195 71t-78 193z" />
    <glyph glyph-name="Aogonek" unicode="&#x104;" horiz-adv-x="1243" 
d="M389 517h454l-165 474l-64 200h-4q-26 -92 -62 -200zM341 366l-94 -278q-20 -61 -36 -77q-20 -20 -58 -20t-68 22t-30 59q0 22 17 67l403 1129q22 58 47 82q34 34 99 34t99 -34q26 -26 47 -82l405 -1127q17 -50 17 -65q0 -35 -33 -66l-59.5 -59.5t-48.5 -53t-44.5 -58
t-25 -53t-11.5 -58.5q0 -85 81 -85q26 0 54 8.5t41 8.5q22 0 36 -14.5t14 -36.5q0 -29 -23 -51q-22 -22 -65.5 -36t-98.5 -14q-98 0 -153 50t-55 134q0 86 67 171t159 153q-14 14 -33 69l-98 281h-552z" />
    <glyph glyph-name="aogonek" unicode="&#x105;" horiz-adv-x="1074" 
d="M726 262v126q-78 24 -188 24q-248 0 -248 -135q0 -66 50 -109t139 -43q44 0 85.5 14t69.5 34t50 40.5t32 34.5zM726 519v123q0 125 -54.5 179t-183.5 54q-69 0 -126.5 -15t-92.5 -30t-51 -15q-28 0 -45 17.5t-17 47.5t22 53q33 32 132 62t217 30q190 0 286 -88.5
t96 -257.5v-370q0 -105 12 -174t12 -73q0 -32 -41 -73q-92 -92 -121 -130q-54 -73 -54 -135q0 -39 19.5 -60t53.5 -21q26 0 53.5 8.5t40.5 8.5q23 0 36.5 -14.5t13.5 -36.5q0 -29 -23 -51q-21 -21 -64.5 -35.5t-98.5 -14.5q-94 0 -147 49t-53 131q0 89 71 178t166 156
q-27 31 -40 99h-3q-4 -6 -12.5 -15t-37 -33t-61 -42.5t-84.5 -33.5t-108 -15q-156 0 -246 80.5t-90 206.5q0 132 109.5 202.5t305.5 70.5q58 0 110 -6t75 -12z" />
    <glyph glyph-name="Cacute" unicode="&#x106;" horiz-adv-x="1193" 
d="M106 647q0 174 48.5 315.5t135.5 236t208 145.5t264 51q114 0 197 -30.5t117 -64.5q29 -29 29 -68q0 -32 -19.5 -51.5t-51.5 -19.5q-17 0 -43 12t-53 26.5t-79.5 26.5t-116.5 12q-93 0 -173 -37t-140.5 -106.5t-95 -178.5t-34.5 -245q0 -248 126.5 -388t331.5 -140
q78 0 138.5 18.5t97 36.5t54.5 18q27 0 44.5 -18.5t17.5 -46.5q0 -35 -28 -63q-40 -39 -134.5 -71.5t-222.5 -32.5q-276 0 -447 179.5t-171 483.5zM611 1608l222 203q25 23 50 23q37 0 66.5 -34t29.5 -71q0 -31 -40 -58l-247 -165q-23 -15 -43 -15q-28 0 -47.5 21t-19.5 47
q0 24 29 49z" />
    <glyph glyph-name="cacute" unicode="&#x107;" horiz-adv-x="923" 
d="M98 466q0 258 141.5 409t369.5 151q82 0 138.5 -19.5t79.5 -43.5q25 -24 25 -62q0 -28 -18 -47t-47 -19q-14 0 -71.5 21t-122.5 21q-134 0 -220.5 -102t-86.5 -285q0 -167 88 -262.5t232 -95.5q67 0 124.5 19.5t68.5 19.5q26 0 42 -17t16 -43q0 -32 -27 -59
q-29 -29 -98 -50t-162 -21q-212 0 -342 132.5t-130 352.5zM445 1255l168 235q25 35 57 35q36 0 69.5 -29t33.5 -67q0 -24 -30 -52l-199 -204q-25 -26 -50 -26q-28 0 -48 19.5t-20 45.5q0 18 19 43z" />
    <glyph glyph-name="Ccircumflex" unicode="&#x108;" horiz-adv-x="1193" 
d="M106 647q0 174 48.5 315.5t135.5 236t208 145.5t264 51q114 0 197 -30.5t117 -64.5q29 -29 29 -68q0 -32 -19.5 -51.5t-51.5 -19.5q-17 0 -43 12t-53 26.5t-79.5 26.5t-116.5 12q-93 0 -173 -37t-140.5 -106.5t-95 -178.5t-34.5 -245q0 -248 126.5 -388t331.5 -140
q78 0 138.5 18.5t97 36.5t54.5 18q27 0 44.5 -18.5t17.5 -46.5q0 -35 -28 -63q-40 -39 -134.5 -71.5t-222.5 -32.5q-276 0 -447 179.5t-171 483.5zM698 1653l-189 -140q-25 -18 -44 -18q-23 0 -41.5 18.5t-18.5 42.5q0 23 27 49l189 178q45 42 86 42q43 0 86 -41l184 -180
q22 -22 22 -43q0 -27 -19.5 -45.5t-45.5 -18.5q-22 0 -45 18z" />
    <glyph glyph-name="ccircumflex" unicode="&#x109;" horiz-adv-x="923" 
d="M98 466q0 258 141.5 409t369.5 151q82 0 138.5 -19.5t79.5 -43.5q25 -24 25 -62q0 -28 -18 -47t-47 -19q-14 0 -71.5 21t-122.5 21q-134 0 -220.5 -102t-86.5 -285q0 -167 88 -262.5t232 -95.5q67 0 124.5 19.5t68.5 19.5q26 0 42 -17t16 -43q0 -32 -27 -59
q-29 -29 -98 -50t-162 -21q-212 0 -342 132.5t-130 352.5zM534 1330l-179 -158q-23 -19 -43 -19q-24 0 -43 18.5t-19 42.5q0 19 23 42l189 206q39 42 81 42q44 0 80 -41l181 -202q23 -25 23 -44q0 -26 -20 -45t-46 -19q-20 0 -47 21z" />
    <glyph glyph-name="Cdotaccent" unicode="&#x10a;" horiz-adv-x="1193" 
d="M106 647q0 174 48.5 315.5t135.5 236t208 145.5t264 51q114 0 197 -30.5t117 -64.5q29 -29 29 -68q0 -32 -19.5 -51.5t-51.5 -19.5q-17 0 -43 12t-53 26.5t-79.5 26.5t-116.5 12q-93 0 -173 -37t-140.5 -106.5t-95 -178.5t-34.5 -245q0 -248 126.5 -388t331.5 -140
q78 0 138.5 18.5t97 36.5t54.5 18q27 0 44.5 -18.5t17.5 -46.5q0 -35 -28 -63q-40 -39 -134.5 -71.5t-222.5 -32.5q-276 0 -447 179.5t-171 483.5zM589 1651q0 51 34.5 85.5t86.5 34.5t84.5 -32.5t32.5 -83.5q0 -52 -34 -86.5t-85 -34.5q-52 0 -85.5 32.5t-33.5 84.5z" />
    <glyph glyph-name="cdotaccent" unicode="&#x10b;" horiz-adv-x="923" 
d="M98 466q0 258 141.5 409t369.5 151q82 0 138.5 -19.5t79.5 -43.5q25 -24 25 -62q0 -28 -18 -47t-47 -19q-14 0 -71.5 21t-122.5 21q-134 0 -220.5 -102t-86.5 -285q0 -167 88 -262.5t232 -95.5q67 0 124.5 19.5t68.5 19.5q26 0 42 -17t16 -43q0 -32 -27 -59
q-29 -29 -98 -50t-162 -21q-212 0 -342 132.5t-130 352.5zM423 1320q0 50 34.5 84.5t85.5 34.5t83.5 -32.5t32.5 -82.5q0 -51 -33.5 -86t-84.5 -35q-52 0 -85 32.5t-33 84.5z" />
    <glyph glyph-name="Ccaron" unicode="&#x10c;" horiz-adv-x="1193" 
d="M106 647q0 174 48.5 315.5t135.5 236t208 145.5t264 51q114 0 197 -30.5t117 -64.5q29 -29 29 -68q0 -32 -19.5 -51.5t-51.5 -19.5q-17 0 -43 12t-53 26.5t-79.5 26.5t-116.5 12q-93 0 -173 -37t-140.5 -106.5t-95 -178.5t-34.5 -245q0 -248 126.5 -388t331.5 -140
q78 0 138.5 18.5t97 36.5t54.5 18q27 0 44.5 -18.5t17.5 -46.5q0 -35 -28 -63q-40 -39 -134.5 -71.5t-222.5 -32.5q-276 0 -447 179.5t-171 483.5zM708 1670l189 139q26 18 44 18q23 0 41.5 -18.5t18.5 -42.5q0 -22 -27 -49l-189 -178q-44 -41 -86 -41q-43 0 -86 41
l-184 179q-22 22 -22 44q0 26 19.5 45t45.5 19q20 0 45 -18z" />
    <glyph glyph-name="ccaron" unicode="&#x10d;" horiz-adv-x="923" 
d="M98 466q0 258 141.5 409t369.5 151q82 0 138.5 -19.5t79.5 -43.5q25 -24 25 -62q0 -28 -18 -47t-47 -19q-14 0 -71.5 21t-122.5 21q-134 0 -220.5 -102t-86.5 -285q0 -167 88 -262.5t232 -95.5q67 0 124.5 19.5t68.5 19.5q26 0 42 -17t16 -43q0 -32 -27 -59
q-29 -29 -98 -50t-162 -21q-212 0 -342 132.5t-130 352.5zM542 1327l180 157q24 20 43 20q24 0 42.5 -18.5t18.5 -42.5q0 -18 -22 -43l-190 -206q-39 -42 -80 -42q-42 0 -80 41l-182 203q-23 26 -23 44q0 25 20 44t46 19q23 0 47 -21z" />
    <glyph glyph-name="Dcaron" unicode="&#x10e;" horiz-adv-x="1394" 
d="M193 90v1198q0 43 23.5 66.5t66.5 23.5h321q335 0 511.5 -171t176.5 -488q0 -337 -190 -528t-524 -191h-295q-43 0 -66.5 23.5t-23.5 66.5zM381 154h210q237 0 373 142.5t136 401.5q0 261 -129.5 393.5t-379.5 132.5h-210v-1070zM642 1670l189 139q26 18 44 18
q23 0 41.5 -18.5t18.5 -42.5q0 -22 -27 -49l-189 -178q-44 -41 -86 -41q-43 0 -86 41l-184 179q-22 22 -22 44q0 26 19.5 45t45.5 19q20 0 45 -18z" />
    <glyph glyph-name="dcaron" unicode="&#x10f;" horiz-adv-x="1275" 
d="M815 1132v269q0 82 91 82q45 0 68.5 -21.5t23.5 -60.5v-1333q0 -37 -20 -57t-57 -20q-69 0 -81 81l-10 69h-3q-4 -6 -12 -17t-36.5 -38.5t-62 -48.5t-88.5 -38t-116 -17q-189 0 -299.5 127t-110.5 368q0 260 142.5 404.5t394.5 144.5q44 0 88 -6t66 -12l22 -6l3 1
q-3 61 -3 129zM815 305v532q-8 5 -23 11.5t-66.5 18t-109.5 11.5q-149 0 -237.5 -99.5t-88.5 -282.5q0 -363 263 -363q49 0 94 17.5t74 43t51.5 51t32.5 43.5zM1115 1240l70 254q9 34 26.5 49t48.5 15q39 0 69.5 -21.5t30.5 -51.5q0 -14 -13 -43l-116 -255q-17 -39 -57 -39
q-26 0 -46.5 15t-20.5 39q0 14 8 38z" />
    <glyph glyph-name="Dcroat" unicode="&#x110;" horiz-adv-x="1421" 
d="M220 652h-108q-30 0 -48 19t-18 53t18 53t48 19h108v492q0 43 24 66.5t67 23.5h320q335 0 511.5 -171t176.5 -488q0 -337 -190 -528t-524 -191h-294q-43 0 -67 23.5t-24 66.5v562zM408 652v-498h210q237 0 373 142.5t136 401.5q0 261 -129.5 393.5t-379.5 132.5h-210
v-428h258q30 0 48 -19t18 -53t-18 -53t-48 -19h-258z" />
    <glyph glyph-name="dcroat" unicode="&#x111;" horiz-adv-x="1169" 
d="M810 1172h-236q-30 0 -47 18t-17 50t17 49.5t47 17.5h236v103q0 36 24 55.5t68 19.5t67.5 -19.5t23.5 -55.5v-103h100q30 0 47 -17.5t17 -49.5t-17 -50t-47 -18h-100v-1104q0 -37 -20 -57t-56 -20q-70 0 -82 81l-9 69h-4q-4 -6 -12 -17t-36.5 -38.5t-61.5 -48.5
t-88.5 -38t-116.5 -17q-188 0 -298.5 126t-110.5 364q0 255 142.5 399t393.5 144q45 0 89 -6t65 -12l22 -6l3 1q-3 60 -3 126v54zM810 305v522q-8 5 -22.5 11.5t-66 18t-109.5 11.5q-149 0 -237.5 -98.5t-88.5 -278.5q0 -358 263 -358q49 0 93.5 17.5t74 43t51.5 51t32 43.5
z" />
    <glyph glyph-name="Emacron" unicode="&#x112;" horiz-adv-x="1070" 
d="M381 631v-476h529q33 0 52 -20t19 -58q0 -37 -19 -57t-52 -20h-627q-43 0 -66.5 23.5t-23.5 66.5v1198q0 43 23.5 66.5t66.5 23.5h623q33 0 52 -20t19 -56q0 -38 -18.5 -58.5t-52.5 -20.5h-525v-438h453q33 0 51.5 -20t18.5 -57t-18.5 -57t-51.5 -20h-453zM320 1717h508
q66 0 66 -69q0 -70 -66 -70h-508q-65 0 -65 70q0 69 65 69z" />
    <glyph glyph-name="emacron" unicode="&#x113;" horiz-adv-x="1070" 
d="M860 484h-578v-7q4 -161 93.5 -253t235.5 -92q67 0 120 13t85 25.5t48 12.5q27 0 43 -17t16 -42q0 -32 -26 -58q-31 -31 -116 -58t-200 -27q-220 0 -351.5 132.5t-131.5 357.5q0 260 131.5 407.5t341.5 147.5q177 0 285.5 -115.5t108.5 -313.5q0 -113 -105 -113zM290 615
h503q-28 270 -244 270q-95 0 -165.5 -68.5t-93.5 -201.5zM293 1387h500q65 0 65 -69t-65 -69h-500q-65 0 -65 69t65 69z" />
    <glyph glyph-name="Ebreve" unicode="&#x114;" horiz-adv-x="1070" 
d="M381 631v-476h529q33 0 52 -20t19 -58q0 -37 -19 -57t-52 -20h-627q-43 0 -66.5 23.5t-23.5 66.5v1198q0 43 23.5 66.5t66.5 23.5h623q33 0 52 -20t19 -56q0 -38 -18.5 -58.5t-52.5 -20.5h-525v-438h453q33 0 51.5 -20t18.5 -57t-18.5 -57t-51.5 -20h-453zM296 1754
q0 34 18.5 52.5t49.5 18.5q55 0 64 -55q21 -127 156 -127q129 0 152 127q9 55 63 55q31 0 50 -18.5t19 -52.5q0 -104 -84.5 -178.5t-205.5 -74.5q-127 0 -204.5 73t-77.5 180z" />
    <glyph glyph-name="ebreve" unicode="&#x115;" horiz-adv-x="1070" 
d="M860 484h-578v-7q4 -161 93.5 -253t235.5 -92q67 0 120 13t85 25.5t48 12.5q27 0 43 -17t16 -42q0 -32 -26 -58q-31 -31 -116 -58t-200 -27q-220 0 -351.5 132.5t-131.5 357.5q0 260 131.5 407.5t341.5 147.5q177 0 285.5 -115.5t108.5 -313.5q0 -113 -105 -113zM290 615
h503q-28 270 -244 270q-95 0 -165.5 -68.5t-93.5 -201.5zM266 1409q0 31 18.5 48.5t48.5 17.5q53 0 61 -54q20 -139 151 -139q68 0 104.5 37.5t43.5 101.5q3 26 19.5 40t41.5 14q30 0 48.5 -17.5t18.5 -48.5q0 -113 -77.5 -188.5t-204.5 -75.5q-117 0 -195 71t-78 193z" />
    <glyph glyph-name="Edotaccent" unicode="&#x116;" horiz-adv-x="1070" 
d="M381 631v-476h529q33 0 52 -20t19 -58q0 -37 -19 -57t-52 -20h-627q-43 0 -66.5 23.5t-23.5 66.5v1198q0 43 23.5 66.5t66.5 23.5h623q33 0 52 -20t19 -56q0 -38 -18.5 -58.5t-52.5 -20.5h-525v-438h453q33 0 51.5 -20t18.5 -57t-18.5 -57t-51.5 -20h-453zM478 1651
q0 51 34.5 85.5t86.5 34.5t84.5 -32.5t32.5 -83.5q0 -52 -34 -86.5t-85 -34.5q-52 0 -85.5 32.5t-33.5 84.5z" />
    <glyph glyph-name="edotaccent" unicode="&#x117;" horiz-adv-x="1070" 
d="M860 484h-578v-7q4 -161 93.5 -253t235.5 -92q67 0 120 13t85 25.5t48 12.5q27 0 43 -17t16 -42q0 -32 -26 -58q-31 -31 -116 -58t-200 -27q-220 0 -351.5 132.5t-131.5 357.5q0 260 131.5 407.5t341.5 147.5q177 0 285.5 -115.5t108.5 -313.5q0 -113 -105 -113zM290 615
h503q-28 270 -244 270q-95 0 -165.5 -68.5t-93.5 -201.5zM430 1320q0 50 34.5 84.5t85.5 34.5t83.5 -32.5t32.5 -82.5q0 -51 -33.5 -86t-84.5 -35q-52 0 -85 32.5t-33 84.5z" />
    <glyph glyph-name="Eogonek" unicode="&#x118;" horiz-adv-x="1070" 
d="M381 631v-476h529q33 0 52 -20t19 -58q0 -43 -34 -77q-99 -98 -128 -135q-62 -77 -62 -138q0 -84 80 -84q26 0 53.5 8.5t40.5 8.5q23 0 36 -14.5t13 -36.5q0 -30 -22 -51q-21 -21 -65 -35.5t-98 -14.5q-98 0 -152.5 50t-54.5 134q0 80 63.5 162t150.5 146h-519
q-43 0 -66.5 23.5t-23.5 66.5v1198q0 43 23.5 66.5t66.5 23.5h623q33 0 52 -20t19 -56q0 -38 -18.5 -58.5t-52.5 -20.5h-525v-438h453q33 0 51.5 -20t18.5 -57t-18.5 -57t-51.5 -20h-453z" />
    <glyph glyph-name="eogonek" unicode="&#x119;" horiz-adv-x="1070" 
d="M860 484h-578v-7q3 -161 92.5 -253t236.5 -92q67 0 120 13t85 25.5t48 12.5q27 0 43 -17t16 -42q0 -32 -26 -58q-15 -15 -52 -46.5t-68 -60t-63.5 -65.5t-51.5 -80t-19 -86q0 -85 81 -85q26 0 54 8.5t41 8.5q23 0 36.5 -14.5t13.5 -36.5q0 -29 -23 -51q-50 -50 -164 -50
q-98 0 -153 50t-55 134q0 79 53.5 157t128.5 137q-32 -5 -76 -5q-220 0 -351 133t-131 357q0 260 131.5 407.5t341.5 147.5q177 0 285.5 -115.5t108.5 -313.5q0 -113 -105 -113zM290 615h503q-28 270 -244 270q-95 0 -165.5 -68.5t-93.5 -201.5z" />
    <glyph glyph-name="Ecaron" unicode="&#x11a;" horiz-adv-x="1070" 
d="M381 631v-476h529q33 0 52 -20t19 -58q0 -37 -19 -57t-52 -20h-627q-43 0 -66.5 23.5t-23.5 66.5v1198q0 43 23.5 66.5t66.5 23.5h623q33 0 52 -20t19 -56q0 -38 -18.5 -58.5t-52.5 -20.5h-525v-438h453q33 0 51.5 -20t18.5 -57t-18.5 -57t-51.5 -20h-453zM586 1670
l189 139q26 18 44 18q23 0 41.5 -18.5t18.5 -42.5q0 -22 -27 -49l-189 -178q-44 -41 -86 -41q-43 0 -86 41l-184 179q-22 22 -22 44q0 26 19.5 45t45.5 19q20 0 45 -18z" />
    <glyph glyph-name="ecaron" unicode="&#x11b;" horiz-adv-x="1070" 
d="M860 484h-578v-7q4 -161 93.5 -253t235.5 -92q67 0 120 13t85 25.5t48 12.5q27 0 43 -17t16 -42q0 -32 -26 -58q-31 -31 -116 -58t-200 -27q-220 0 -351.5 132.5t-131.5 357.5q0 260 131.5 407.5t341.5 147.5q177 0 285.5 -115.5t108.5 -313.5q0 -113 -105 -113zM290 615
h503q-28 270 -244 270q-95 0 -165.5 -68.5t-93.5 -201.5zM554 1327l180 157q24 20 43 20q24 0 42.5 -18.5t18.5 -42.5q0 -18 -22 -43l-190 -206q-39 -42 -80 -42q-42 0 -80 41l-182 203q-23 26 -23 44q0 25 20 44t46 19q23 0 47 -21z" />
    <glyph glyph-name="Gcircumflex" unicode="&#x11c;" horiz-adv-x="1375" 
d="M1040 571h-241q-33 0 -51 20t-18 57q0 35 18.5 55t50.5 20h339q40 0 62.5 -22.5t22.5 -62.5v-447q0 -76 -49 -115q-50 -38 -153 -66.5t-247 -28.5q-310 0 -489 179t-179 498q0 342 194 539.5t520 197.5q137 0 232.5 -34t132.5 -70q29 -30 29 -68q0 -31 -20 -50.5
t-52 -19.5q-17 0 -46 13.5t-60.5 29.5t-96 29.5t-144.5 13.5q-225 0 -360.5 -148t-135.5 -410q0 -263 136 -404t369 -141q72 0 131 10.5t82 21.5l23 10v393zM752 1653l-189 -140q-25 -18 -44 -18q-23 0 -41.5 18.5t-18.5 42.5q0 23 27 49l189 178q45 42 86 42q43 0 86 -41
l184 -180q22 -22 22 -43q0 -27 -19.5 -45.5t-45.5 -18.5q-22 0 -45 18z" />
    <glyph glyph-name="gcircumflex" unicode="&#x11d;" horiz-adv-x="1052" 
d="M940 1023l-104 -100q103 -94 103 -232q0 -162 -110 -261t-307 -99q-80 0 -143 23q-6 -5 -15 -14t-24 -36t-15 -52q0 -51 45.5 -79t155.5 -28h117q186 0 279.5 -71t93.5 -202q0 -156 -134.5 -260t-377.5 -104q-216 0 -327 85.5t-111 215.5q0 52 16.5 98.5t39.5 76t46 51.5
t40 32l16 10q-67 58 -67 151q0 31 10.5 61.5t25 52t29 38.5t24.5 26l11 8q-61 45 -94 110.5t-33 140.5q0 161 110.5 260.5t306.5 99.5q88 0 170 -31l119 139q23 27 38.5 37t36.5 10q31 0 55.5 -22.5t24.5 -55.5q0 -19 -11.5 -35.5t-39.5 -43.5zM609 -1h-112q-83 0 -149 19
q-4 -3 -10.5 -8t-24 -23t-30.5 -38t-23.5 -51.5t-10.5 -64.5q0 -82 68.5 -132.5t203.5 -50.5q150 0 231.5 57t81.5 141q0 74 -52.5 112.5t-172.5 38.5zM311 680q0 -93 60.5 -150t164.5 -57q105 0 164 55t59 148q0 94 -60.5 150.5t-166.5 56.5q-104 0 -162.5 -55t-58.5 -148z
M529 1358l-189 -140q-25 -18 -44 -18q-23 0 -41.5 18.5t-18.5 42.5q0 23 27 49l189 178q45 42 86 42q43 0 86 -41l184 -180q22 -22 22 -43q0 -27 -19.5 -45.5t-45.5 -18.5q-22 0 -45 18z" />
    <glyph glyph-name="Gbreve" unicode="&#x11e;" horiz-adv-x="1375" 
d="M1040 571h-241q-33 0 -51 20t-18 57q0 35 18.5 55t50.5 20h339q40 0 62.5 -22.5t22.5 -62.5v-447q0 -76 -49 -115q-50 -38 -153 -66.5t-247 -28.5q-310 0 -489 179t-179 498q0 342 194 539.5t520 197.5q137 0 232.5 -34t132.5 -70q29 -30 29 -68q0 -31 -20 -50.5
t-52 -19.5q-17 0 -46 13.5t-60.5 29.5t-96 29.5t-144.5 13.5q-225 0 -360.5 -148t-135.5 -410q0 -263 136 -404t369 -141q72 0 131 10.5t82 21.5l23 10v393zM443 1754q0 34 18.5 52.5t49.5 18.5q55 0 64 -55q21 -127 156 -127q129 0 152 127q9 55 63 55q31 0 50 -18.5
t19 -52.5q0 -104 -84.5 -178.5t-205.5 -74.5q-127 0 -204.5 73t-77.5 180z" />
    <glyph glyph-name="gbreve" unicode="&#x11f;" horiz-adv-x="1052" 
d="M940 1023l-104 -100q103 -94 103 -232q0 -162 -110 -261t-307 -99q-80 0 -143 23q-6 -5 -15 -14t-24 -36t-15 -52q0 -51 45.5 -79t155.5 -28h117q186 0 279.5 -71t93.5 -202q0 -156 -134.5 -260t-377.5 -104q-216 0 -327 85.5t-111 215.5q0 52 16.5 98.5t39.5 76t46 51.5
t40 32l16 10q-67 58 -67 151q0 31 10.5 61.5t25 52t29 38.5t24.5 26l11 8q-61 45 -94 110.5t-33 140.5q0 161 110.5 260.5t306.5 99.5q88 0 170 -31l119 139q23 27 38.5 37t36.5 10q31 0 55.5 -22.5t24.5 -55.5q0 -19 -11.5 -35.5t-39.5 -43.5zM609 -1h-112q-83 0 -149 19
q-4 -3 -10.5 -8t-24 -23t-30.5 -38t-23.5 -51.5t-10.5 -64.5q0 -82 68.5 -132.5t203.5 -50.5q150 0 231.5 57t81.5 141q0 74 -52.5 112.5t-172.5 38.5zM311 680q0 -93 60.5 -150t164.5 -57q105 0 164 55t59 148q0 94 -60.5 150.5t-166.5 56.5q-104 0 -162.5 -55t-58.5 -148z
M250 1413q0 31 18.5 48.5t48.5 17.5q53 0 61 -54q20 -139 151 -139q68 0 104.5 37.5t43.5 101.5q3 26 19.5 40t41.5 14q30 0 48.5 -17.5t18.5 -48.5q0 -113 -77.5 -188.5t-204.5 -75.5q-117 0 -195 71t-78 193z" />
    <glyph glyph-name="Gdotaccent" unicode="&#x120;" horiz-adv-x="1375" 
d="M1040 571h-241q-33 0 -51 20t-18 57q0 35 18.5 55t50.5 20h339q40 0 62.5 -22.5t22.5 -62.5v-447q0 -76 -49 -115q-50 -38 -153 -66.5t-247 -28.5q-310 0 -489 179t-179 498q0 342 194 539.5t520 197.5q137 0 232.5 -34t132.5 -70q29 -30 29 -68q0 -31 -20 -50.5
t-52 -19.5q-17 0 -46 13.5t-60.5 29.5t-96 29.5t-144.5 13.5q-225 0 -360.5 -148t-135.5 -410q0 -263 136 -404t369 -141q72 0 131 10.5t82 21.5l23 10v393zM616 1651q0 51 34.5 85.5t86.5 34.5t84.5 -32.5t32.5 -83.5q0 -52 -34 -86.5t-85 -34.5q-52 0 -85.5 32.5
t-33.5 84.5z" />
    <glyph glyph-name="gdotaccent" unicode="&#x121;" horiz-adv-x="1052" 
d="M940 1023l-104 -100q103 -94 103 -232q0 -162 -110 -261t-307 -99q-80 0 -143 23q-6 -5 -15 -14t-24 -36t-15 -52q0 -51 45.5 -79t155.5 -28h117q186 0 279.5 -71t93.5 -202q0 -156 -134.5 -260t-377.5 -104q-216 0 -327 85.5t-111 215.5q0 52 16.5 98.5t39.5 76t46 51.5
t40 32l16 10q-67 58 -67 151q0 31 10.5 61.5t25 52t29 38.5t24.5 26l11 8q-61 45 -94 110.5t-33 140.5q0 161 110.5 260.5t306.5 99.5q88 0 170 -31l119 139q23 27 38.5 37t36.5 10q31 0 55.5 -22.5t24.5 -55.5q0 -19 -11.5 -35.5t-39.5 -43.5zM609 -1h-112q-83 0 -149 19
q-4 -3 -10.5 -8t-24 -23t-30.5 -38t-23.5 -51.5t-10.5 -64.5q0 -82 68.5 -132.5t203.5 -50.5q150 0 231.5 57t81.5 141q0 74 -52.5 112.5t-172.5 38.5zM311 680q0 -93 60.5 -150t164.5 -57q105 0 164 55t59 148q0 94 -60.5 150.5t-166.5 56.5q-104 0 -162.5 -55t-58.5 -148z
M415 1320q0 50 34.5 84.5t85.5 34.5t83.5 -32.5t32.5 -82.5q0 -51 -33.5 -86t-84.5 -35q-52 0 -85 32.5t-33 84.5z" />
    <glyph glyph-name="Gcommaaccent" unicode="&#x122;" horiz-adv-x="1375" 
d="M1040 571h-241q-33 0 -51 20t-18 57q0 35 18.5 55t50.5 20h339q40 0 62.5 -22.5t22.5 -62.5v-447q0 -76 -49 -115q-50 -38 -153 -66.5t-247 -28.5q-310 0 -489 179t-179 498q0 342 194 539.5t520 197.5q137 0 232.5 -34t132.5 -70q29 -30 29 -68q0 -31 -20 -50.5
t-52 -19.5q-17 0 -46 13.5t-60.5 29.5t-96 29.5t-144.5 13.5q-225 0 -360.5 -148t-135.5 -410q0 -263 136 -404t369 -141q72 0 131 10.5t82 21.5l23 10v393zM638 -232q0 49 32.5 81t80.5 32q49 0 79 -31.5t30 -83.5q0 -53 -33.5 -102.5t-82 -82.5t-101 -53t-92.5 -20
q-32 0 -49.5 13.5t-17.5 36.5q0 21 14 35q12 12 41.5 25.5t63.5 34t60 50.5q-25 28 -25 65z" />
    <glyph glyph-name="gcommaaccent" unicode="&#x123;" horiz-adv-x="1052" 
d="M940 1023l-104 -100q103 -94 103 -232q0 -162 -110 -261t-307 -99q-80 0 -143 23q-6 -5 -15 -14t-24 -36t-15 -52q0 -51 45.5 -79t155.5 -28h117q186 0 279.5 -71t93.5 -202q0 -156 -134.5 -260t-377.5 -104q-216 0 -327 85.5t-111 215.5q0 52 16.5 98.5t39.5 76t46 51.5
t40 32l16 10q-67 58 -67 151q0 31 10.5 61.5t25 52t29 38.5t24.5 26l11 8q-61 45 -94 110.5t-33 140.5q0 161 110.5 260.5t306.5 99.5q88 0 170 -31l119 139q23 27 38.5 37t36.5 10q31 0 55.5 -22.5t24.5 -55.5q0 -19 -11.5 -35.5t-39.5 -43.5zM609 -1h-112q-83 0 -149 19
q-4 -3 -10.5 -8t-24 -23t-30.5 -38t-23.5 -51.5t-10.5 -64.5q0 -82 68.5 -132.5t203.5 -50.5q150 0 231.5 57t81.5 141q0 74 -52.5 112.5t-172.5 38.5zM311 680q0 -93 60.5 -150t164.5 -57q105 0 164 55t59 148q0 94 -60.5 150.5t-166.5 56.5q-104 0 -162.5 -55t-58.5 -148z
M419 1259q0 70 56.5 132t127.5 94t126 32q31 0 49 -13.5t18 -36.5q0 -21 -15 -36q-10 -10 -70 -40t-95 -70q25 -25 25 -64q0 -49 -32.5 -81.5t-80.5 -32.5q-49 0 -79 32t-30 84z" />
    <glyph glyph-name="Hcircumflex" unicode="&#x124;" horiz-adv-x="1430" 
d="M381 631v-554q0 -83 -94 -83t-94 83v1224q0 83 94 83t94 -83v-515h668v515q0 83 94 83t94 -83v-1224q0 -83 -94 -83t-94 83v554h-668zM716 1653l-189 -140q-25 -18 -44 -18q-23 0 -41.5 18.5t-18.5 42.5q0 23 27 49l189 178q45 42 86 42q43 0 86 -41l184 -180
q22 -22 22 -43q0 -27 -19.5 -45.5t-45.5 -18.5q-22 0 -45 18z" />
    <glyph glyph-name="hcircumflex" unicode="&#x125;" horiz-adv-x="1200" 
d="M174 76v1325q0 82 91 82q45 0 68.5 -21.5t23.5 -60.5v-386q0 -67 -7 -136h3q4 6 12 16t36 35t60.5 44.5t86 35.5t112.5 16q177 0 276.5 -106.5t99.5 -305.5v-538q0 -82 -91 -82q-92 0 -92 82v512q0 287 -235 287q-49 0 -93.5 -17.5t-74 -43t-51.5 -51t-32 -43.5l-10 -17
v-627q0 -82 -92 -82q-91 0 -91 82zM263 1714l-189 -140q-25 -18 -44 -18q-23 0 -41.5 18.5t-18.5 42.5q0 23 27 49l189 178q45 42 86 42q43 0 86 -41l184 -180q22 -22 22 -43q0 -27 -19.5 -45.5t-45.5 -18.5q-22 0 -45 18z" />
    <glyph glyph-name="Hbar" unicode="&#x126;" horiz-adv-x="1484" 
d="M408 620v-543q0 -83 -94 -83t-94 83v903h-109q-30 0 -47.5 19.5t-17.5 52.5q0 34 17.5 53t47.5 19h109v177q0 83 94 83t94 -83v-177h668v177q0 83 94 83t94 -83v-177h109q30 0 47.5 -19t17.5 -52q0 -34 -17.5 -53.5t-47.5 -19.5h-109v-903q0 -83 -94 -83t-94 83v543h-668
zM408 980v-207h668v207h-668z" />
    <glyph glyph-name="hbar" unicode="&#x127;" horiz-adv-x="1203" 
d="M176 1172h-100q-29 0 -46.5 18t-17.5 50t17.5 49.5t46.5 17.5h100v103q0 36 24 55.5t68 19.5t67.5 -19.5t23.5 -55.5v-103h235q30 0 47 -17.5t17 -49.5t-17 -50t-47 -18h-235v-173q0 -74 -6 -130h3q4 6 12 16t36 35t60.5 44.5t86 35.5t112.5 16q177 0 276.5 -106.5
t99.5 -305.5v-528q0 -82 -92 -82q-91 0 -91 82v502q0 287 -236 287q-48 0 -93 -17.5t-74 -43t-51.5 -51t-32.5 -43.5l-10 -17v-617q0 -82 -91 -82q-92 0 -92 82v1096z" />
    <glyph glyph-name="Itilde" unicode="&#x128;" horiz-adv-x="574" 
d="M193 77v1224q0 83 94 83t94 -83v-1224q0 -83 -94 -83t-94 83zM139 1628q-28 0 -50.5 -12.5t-34.5 -27.5t-28.5 -27.5t-35.5 -12.5q-23 0 -39 15t-16 42q0 53 62 111t152 58q45 0 89 -15.5t72.5 -33.5t63.5 -33.5t64 -15.5q28 0 50.5 12.5t34.5 28t29 28t36 12.5
q23 0 38.5 -15.5t15.5 -42.5q0 -53 -62 -110.5t-152 -57.5q-44 0 -88 15t-73 33.5t-64 33.5t-64 15z" />
    <glyph glyph-name="itilde" unicode="&#x129;" horiz-adv-x="530" 
d="M174 76v856q0 82 91 82q92 0 92 -82v-856q0 -82 -92 -82q-91 0 -91 82zM142 1298q-22 0 -40 -13.5t-28 -29t-26.5 -29t-36.5 -13.5q-24 0 -39.5 15.5t-15.5 41.5q0 58 56 115.5t136 57.5q43 0 82 -16.5t62.5 -36.5t50.5 -36.5t49 -16.5t40 13.5t28 29.5t26.5 29.5
t36.5 13.5q24 0 39.5 -15.5t15.5 -41.5q0 -58 -56 -115.5t-136 -57.5q-43 0 -82 16.5t-62.5 36t-50.5 36t-49 16.5z" />
    <glyph glyph-name="Imacron" unicode="&#x12a;" horiz-adv-x="574" 
d="M193 77v1224q0 83 94 83t94 -83v-1224q0 -83 -94 -83t-94 83zM35 1717h508q66 0 66 -69q0 -70 -66 -70h-508q-65 0 -65 70q0 69 65 69z" />
    <glyph glyph-name="imacron" unicode="&#x12b;" horiz-adv-x="530" 
d="M174 76v856q0 82 91 82q92 0 92 -82v-856q0 -82 -92 -82q-91 0 -91 82zM52 1387h428q65 0 65 -69t-65 -69h-428q-65 0 -65 69t65 69z" />
    <glyph glyph-name="Ibreve" unicode="&#x12c;" horiz-adv-x="574" 
d="M193 77v1224q0 83 94 83t94 -83v-1224q0 -83 -94 -83t-94 83zM3 1754q0 34 18.5 52.5t49.5 18.5q55 0 64 -55q21 -127 156 -127q129 0 152 127q9 55 63 55q31 0 50 -18.5t19 -52.5q0 -104 -84.5 -178.5t-205.5 -74.5q-127 0 -204.5 73t-77.5 180z" />
    <glyph glyph-name="ibreve" unicode="&#x12d;" horiz-adv-x="530" 
d="M174 76v856q0 82 91 82q92 0 92 -82v-856q0 -82 -92 -82q-91 0 -91 82zM-2 1409q0 31 18 48.5t49 17.5q53 0 61 -54q18 -139 140 -139t138 139q6 54 61 54q30 0 48.5 -17.5t18.5 -48.5q0 -113 -74.5 -188.5t-197.5 -75.5q-113 0 -187.5 71t-74.5 193z" />
    <glyph glyph-name="Iogonek" unicode="&#x12e;" horiz-adv-x="574" 
d="M193 77v1224q0 83 94 83t94 -83v-1224q0 -40 -33 -73q-48 -49 -86.5 -122.5t-38.5 -143.5q0 -95 81 -95q26 0 53.5 8.5t40.5 8.5q23 0 36.5 -14.5t13.5 -36.5q0 -30 -22 -51q-22 -22 -65.5 -36t-98.5 -14q-99 0 -154 51t-55 142q0 80 51 167t116 145q-27 23 -27 64z" />
    <glyph glyph-name="iogonek" unicode="&#x12f;" horiz-adv-x="530" 
d="M174 76v856q0 82 91 82q92 0 92 -82v-856q0 -23 -6.5 -37t-25.5 -35q-50 -54 -87 -125.5t-37 -140.5q0 -95 81 -95q26 0 53.5 8.5t40.5 8.5q23 0 36.5 -14.5t13.5 -36.5q0 -30 -22 -51q-22 -22 -65.5 -36t-98.5 -14q-99 0 -153.5 51t-54.5 142q0 80 51 167.5t116 145.5
q-25 20 -25 62zM141 1318q0 54 35.5 89t90.5 35q52 0 87 -34.5t35 -85.5q0 -53 -35.5 -88t-90.5 -35q-52 0 -87 34.5t-35 84.5z" />
    <glyph glyph-name="Idotaccent" unicode="&#x130;" horiz-adv-x="574" 
d="M193 77v1224q0 83 94 83t94 -83v-1224q0 -83 -94 -83t-94 83zM170 1651q0 51 34.5 85.5t86.5 34.5t84.5 -32.5t32.5 -83.5q0 -52 -34 -86.5t-85 -34.5q-52 0 -85.5 32.5t-33.5 84.5z" />
    <glyph glyph-name="dotlessi" unicode="&#x131;" horiz-adv-x="530" 
d="M174 76v856q0 82 91 82q92 0 92 -82v-856q0 -82 -92 -82q-91 0 -91 82z" />
    <glyph glyph-name="IJ" unicode="&#x132;" horiz-adv-x="1155" 
d="M193 77v1224q0 83 94 83t94 -83v-1224q0 -83 -94 -83t-94 83zM775 108v1193q0 83 94 83t94 -83v-1135q0 -173 -30.5 -274t-100.5 -171q-52 -52 -108.5 -79t-104.5 -27q-40 0 -60.5 19.5t-20.5 50.5q0 44 40 66q39 22 64.5 39t53 46.5t43 64t26 87t10.5 120.5z" />
    <glyph glyph-name="ij" unicode="&#x133;" horiz-adv-x="1061" 
d="M174 76v856q0 82 91 82q92 0 92 -82v-856q0 -82 -92 -82q-91 0 -91 82zM141 1318q0 54 35.5 89t90.5 35q52 0 87 -34.5t35 -85.5q0 -53 -35.5 -88t-90.5 -35q-52 0 -87 34.5t-35 84.5zM704 6v926q0 82 92 82q91 0 91 -82v-945q0 -250 -128 -378q-43 -43 -92.5 -65.5
t-92.5 -22.5q-38 0 -59.5 18.5t-21.5 50.5q0 39 37 62q48 29 76.5 53.5t53 64t34.5 96.5t10 140zM671 1318q0 53 36 88.5t91 35.5q52 0 87 -35t35 -85q0 -53 -35.5 -88t-90.5 -35q-52 0 -87.5 34.5t-35.5 84.5z" />
    <glyph glyph-name="Jcircumflex" unicode="&#x134;" horiz-adv-x="582" 
d="M201 108v1193q0 83 94 83t94 -83v-1135q0 -173 -30.5 -274t-100.5 -171q-52 -52 -108.5 -79t-104.5 -27q-40 0 -60.5 19.5t-20.5 50.5q0 44 40 66q39 22 64.5 39t53 46.5t43 64t26 87t10.5 120.5zM291 1653l-189 -140q-25 -18 -44 -18q-23 0 -41.5 18.5t-18.5 42.5
q0 23 27 49l189 178q45 42 86 42q43 0 86 -41l184 -180q22 -22 22 -43q0 -27 -19.5 -45.5t-45.5 -18.5q-22 0 -45 18z" />
    <glyph glyph-name="jcircumflex" unicode="&#x135;" horiz-adv-x="531" 
d="M174 6v926q0 82 92 82q91 0 91 -82v-945q0 -250 -128 -378q-43 -43 -92.5 -65.5t-92.5 -22.5q-38 0 -59.5 18.5t-21.5 50.5q0 39 37 62q48 29 76.5 53.5t53 64t34.5 96.5t10 140zM261 1330l-179 -158q-23 -19 -43 -19q-24 0 -43 18.5t-19 42.5q0 19 23 42l189 206
q39 42 81 42q44 0 80 -41l181 -202q23 -25 23 -44q0 -26 -20 -45t-46 -19q-20 0 -47 21z" />
    <glyph glyph-name="Kcommaaccent" unicode="&#x136;" horiz-adv-x="1153" 
d="M381 739l531 588q14 16 30 32q28 28 61 28q39 0 69 -26.5t30 -62.5q0 -33 -25 -58l-496 -519l493 -561q37 -43 37 -73q0 -38 -32.5 -67t-71.5 -29q-35 0 -59 24q-7 7 -28 31l-539 623v-592q0 -83 -94 -83t-94 83v1224q0 83 94 83t94 -83v-562zM519 -232q0 49 32.5 81
t80.5 32q49 0 79 -31.5t30 -83.5q0 -53 -33.5 -102.5t-82 -82.5t-101 -53t-92.5 -20q-32 0 -49.5 13.5t-17.5 36.5q0 21 14 35q12 12 41.5 25.5t63.5 34t60 50.5q-25 28 -25 65z" />
    <glyph glyph-name="kcommaaccent" unicode="&#x137;" horiz-adv-x="1006" 
d="M357 581l392 377q29 27 40 36q28 23 57 23q36 0 63 -26t27 -58q0 -33 -37 -67l-339 -307l360 -409q30 -34 30 -65q0 -39 -31 -66.5t-69 -27.5q-32 0 -56 24q-11 11 -31 34l-406 483v-456q0 -82 -92 -82q-91 0 -91 82v1325q0 82 91 82q45 0 68.5 -21.5t23.5 -60.5v-820z
M450 -232q0 49 32.5 81t80.5 32q49 0 79 -31.5t30 -83.5q0 -53 -33.5 -102.5t-82 -82.5t-101 -53t-92.5 -20q-32 0 -49.5 13.5t-17.5 36.5q0 21 14 35q12 12 41.5 25.5t63.5 34t60 50.5q-25 28 -25 65z" />
    <glyph glyph-name="kgreenlandic" unicode="&#x138;" horiz-adv-x="1000" 
d="M357 545l411 429l16 16q27 27 61 27q35 0 62.5 -25.5t27.5 -58.5q0 -32 -43 -75l-335 -330l343 -365q44 -48 44 -80q0 -35 -30.5 -63.5t-69.5 -28.5q-29 0 -60 28q-13 11 -32 33l-395 444v-420q0 -82 -92 -82q-91 0 -91 82v856q0 82 91 82q92 0 92 -82v-387z" />
    <glyph glyph-name="Lacute" unicode="&#x139;" horiz-adv-x="991" 
d="M381 157h512q34 0 52.5 -20.5t18.5 -58.5t-19 -58t-52 -20h-610q-43 0 -66.5 23.5t-23.5 66.5v1211q0 83 94 83t94 -83v-1144zM306 1608l222 203q25 23 50 23q37 0 66.5 -34t29.5 -71q0 -31 -40 -58l-247 -165q-23 -15 -43 -15q-28 0 -47.5 21t-19.5 47q0 24 29 49z" />
    <glyph glyph-name="lacute" unicode="&#x13a;" horiz-adv-x="569" 
d="M170 235v1166q0 82 91 82q45 0 68.5 -21.5t23.5 -60.5v-1116q0 -81 21 -113.5t63 -32.5q13 0 31 2t26 2q23 0 38 -16t15 -41q0 -34 -22 -56q-40 -40 -131 -40q-109 0 -166.5 61.5t-57.5 183.5zM151 1710l222 203q25 23 50 23q37 0 66.5 -34t29.5 -71q0 -31 -40 -58
l-247 -165q-22 -15 -43 -15q-28 0 -47.5 21t-19.5 47q0 24 29 49z" />
    <glyph glyph-name="Lcommaaccent" unicode="&#x13b;" horiz-adv-x="991" 
d="M381 157h512q34 0 52.5 -20.5t18.5 -58.5t-19 -58t-52 -20h-610q-43 0 -66.5 23.5t-23.5 66.5v1211q0 83 94 83t94 -83v-1144zM482 -232q0 49 32.5 81t80.5 32q49 0 79 -31.5t30 -83.5q0 -53 -33.5 -102.5t-82 -82.5t-101 -53t-92.5 -20q-32 0 -49.5 13.5t-17.5 36.5
q0 21 14 35q12 12 41.5 25.5t63.5 34t60 50.5q-25 28 -25 65z" />
    <glyph glyph-name="lcommaaccent" unicode="&#x13c;" horiz-adv-x="569" 
d="M170 235v1166q0 82 91 82q45 0 68.5 -21.5t23.5 -60.5v-1116q0 -81 21 -113.5t63 -32.5q13 0 31 2t26 2q23 0 38 -16t15 -41q0 -34 -22 -56q-40 -40 -131 -40q-109 0 -166.5 61.5t-57.5 183.5zM226 -232q0 49 32.5 81t80.5 32q49 0 79 -31.5t30 -83.5q0 -53 -33.5 -102.5
t-82 -82.5t-101 -53t-92.5 -20q-32 0 -49.5 13.5t-17.5 36.5q0 21 14 35q12 12 41.5 25.5t63.5 34t60 50.5q-25 28 -25 65z" />
    <glyph glyph-name="Lcaron" unicode="&#x13d;" horiz-adv-x="991" 
d="M381 157h512q34 0 52.5 -20.5t18.5 -58.5t-19 -58t-52 -20h-610q-43 0 -66.5 23.5t-23.5 66.5v1211q0 83 94 83t94 -83v-1144zM291 1670l189 139q26 18 44 18q24 0 42 -18.5t18 -42.5q0 -22 -27 -49l-189 -178q-44 -41 -86 -41q-43 0 -86 41l-184 179q-22 22 -22 44
q0 26 19.5 45t45.5 19q20 0 45 -18z" />
    <glyph glyph-name="lcaron" unicode="&#x13e;" horiz-adv-x="621" 
d="M170 235v1166q0 82 91 82q45 0 68.5 -21.5t23.5 -60.5v-1116q0 -81 21 -113.5t63 -32.5q13 0 31 2t26 2q23 0 38 -16t15 -41q0 -34 -22 -56q-40 -40 -131 -40q-109 0 -166.5 61.5t-57.5 183.5zM469 1240l70 254q9 34 26.5 49t48.5 15q39 0 69.5 -21.5t30.5 -51.5
q0 -14 -13 -43l-116 -255q-17 -39 -57 -39q-26 0 -46.5 15t-20.5 39q0 14 8 38z" />
    <glyph glyph-name="Ldot" unicode="&#x13f;" horiz-adv-x="1014" 
d="M381 157h512q34 0 52.5 -20.5t18.5 -58.5t-19 -58t-52 -20h-610q-43 0 -66.5 23.5t-23.5 66.5v1211q0 83 94 83t94 -83v-1144zM663 754q0 58 38.5 97t96.5 39q57 0 94 -37t37 -94q0 -58 -39 -96.5t-96 -38.5q-58 0 -94.5 36.5t-36.5 93.5z" />
    <glyph glyph-name="ldot" unicode="&#x140;" horiz-adv-x="832" 
d="M170 235v1166q0 82 91 82q45 0 68.5 -21.5t23.5 -60.5v-1116q0 -81 21 -113.5t63 -32.5q13 0 31 2t26 2q23 0 38 -16t15 -41q0 -34 -22 -56q-40 -40 -131 -40q-109 0 -166.5 61.5t-57.5 183.5zM536 707q0 58 38.5 97t96.5 39q57 0 94 -37t37 -94q0 -58 -39 -96.5
t-96 -38.5q-58 0 -94.5 36.5t-36.5 93.5z" />
    <glyph glyph-name="Lslash" unicode="&#x141;" horiz-adv-x="1020" 
d="M409 157h512q34 0 52.5 -20.5t18.5 -58.5q0 -78 -71 -78h-609q-43 0 -67 23.5t-24 66.5v621l-69 -32q-30 -13 -46 -13q-31 0 -50 25.5t-19 54.5q0 28 17 45q10 10 45 26l122 53v431q0 83 94 83t94 -83v-351l160 71q36 16 50 16q31 0 49.5 -26t18.5 -55q0 -28 -17 -45
q-10 -10 -45 -26l-216 -94v-634z" />
    <glyph glyph-name="lslash" unicode="&#x142;" horiz-adv-x="609" 
d="M198 840l-83 -37q-21 -9 -35 -9q-28 0 -47 24.5t-19 53.5q0 41 46 63l138 61v405q0 39 23.5 60.5t68.5 21.5q91 0 91 -82v-324l113 50q21 9 34 9q29 0 48 -24.5t19 -53.5q0 -43 -46 -63l-168 -75v-635q0 -81 21.5 -113.5t63.5 -32.5q12 0 30.5 2t26.5 2q23 0 37.5 -16
t14.5 -41q0 -36 -22 -56q-38 -40 -130 -40q-110 0 -167.5 61.5t-57.5 183.5v605z" />
    <glyph glyph-name="Nacute" unicode="&#x143;" horiz-adv-x="1490" 
d="M193 73v1179q0 132 133 132q55 0 87 -25t67 -80l536 -843q28 -45 57.5 -97t44.5 -81l16 -29l4 2q-11 121 -12 242l-5 832q0 37 22.5 58t65.5 21q88 0 88 -79v-1178q0 -133 -133 -133q-55 0 -87 25t-67 80l-536 843q-28 45 -57.5 97t-44.5 81l-16 29l-4 -2
q11 -121 12 -242l5 -832q0 -79 -88 -79t-88 79zM694 1608l222 203q25 23 50 23q37 0 66.5 -34t29.5 -71q0 -31 -40 -58l-247 -165q-23 -15 -43 -15q-28 0 -47.5 21t-19.5 47q0 24 29 49z" />
    <glyph glyph-name="nacute" unicode="&#x144;" horiz-adv-x="1200" 
d="M174 76v864q0 36 19.5 56t56.5 20t56.5 -19.5t25.5 -60.5l9 -69h3q4 6 11.5 17t36 38.5t62 48.5t89 38t117.5 17q177 0 276.5 -106.5t99.5 -305.5v-538q0 -82 -91 -82q-92 0 -92 82v512q0 287 -235 287q-49 0 -93.5 -17.5t-74 -43t-51.5 -51t-32 -43.5l-10 -17v-627
q0 -82 -92 -82q-91 0 -91 82zM534 1255l168 235q25 35 57 35q36 0 69.5 -29t33.5 -67q0 -24 -30 -52l-199 -204q-25 -26 -50 -26q-28 0 -48 19.5t-20 45.5q0 18 19 43z" />
    <glyph glyph-name="Ncommaaccent" unicode="&#x145;" horiz-adv-x="1490" 
d="M193 73v1179q0 132 133 132q55 0 87 -25t67 -80l536 -843q28 -45 57.5 -97t44.5 -81l16 -29l4 2q-11 121 -12 242l-5 832q0 37 22.5 58t65.5 21q88 0 88 -79v-1178q0 -133 -133 -133q-55 0 -87 25t-67 80l-536 843q-28 45 -57.5 97t-44.5 81l-16 29l-4 -2
q11 -121 12 -242l5 -832q0 -79 -88 -79t-88 79zM663 -232q0 49 32.5 81t80.5 32q49 0 79 -31.5t30 -83.5q0 -53 -33.5 -102.5t-82 -82.5t-101 -53t-92.5 -20q-32 0 -49.5 13.5t-17.5 36.5q0 21 14 35q12 12 41.5 25.5t63.5 34t60 50.5q-25 28 -25 65z" />
    <glyph glyph-name="ncommaaccent" unicode="&#x146;" horiz-adv-x="1200" 
d="M174 76v864q0 36 19.5 56t56.5 20t56.5 -19.5t25.5 -60.5l9 -69h3q4 6 11.5 17t36 38.5t62 48.5t89 38t117.5 17q177 0 276.5 -106.5t99.5 -305.5v-538q0 -82 -91 -82q-92 0 -92 82v512q0 287 -235 287q-49 0 -93.5 -17.5t-74 -43t-51.5 -51t-32 -43.5l-10 -17v-627
q0 -82 -92 -82q-91 0 -91 82zM491 -232q0 49 32.5 81t80.5 32q49 0 79 -31.5t30 -83.5q0 -53 -33.5 -102.5t-82 -82.5t-101 -53t-92.5 -20q-32 0 -49.5 13.5t-17.5 36.5q0 21 14 35q12 12 41.5 25.5t63.5 34t60 50.5q-25 28 -25 65z" />
    <glyph glyph-name="Ncaron" unicode="&#x147;" horiz-adv-x="1490" 
d="M193 73v1179q0 132 133 132q55 0 87 -25t67 -80l536 -843q28 -45 57.5 -97t44.5 -81l16 -29l4 2q-11 121 -12 242l-5 832q0 37 22.5 58t65.5 21q88 0 88 -79v-1178q0 -133 -133 -133q-55 0 -87 25t-67 80l-536 843q-28 45 -57.5 97t-44.5 81l-16 29l-4 -2
q11 -121 12 -242l5 -832q0 -79 -88 -79t-88 79zM763 1670l189 139q26 18 44 18q24 0 42 -18.5t18 -42.5q0 -22 -27 -49l-189 -178q-44 -41 -86 -41q-43 0 -86 41l-184 179q-22 22 -22 44q0 26 19.5 45t45.5 19q20 0 45 -18z" />
    <glyph glyph-name="ncaron" unicode="&#x148;" horiz-adv-x="1200" 
d="M174 76v864q0 36 19.5 56t56.5 20t56.5 -19.5t25.5 -60.5l9 -69h3q4 6 11.5 17t36 38.5t62 48.5t89 38t117.5 17q177 0 276.5 -106.5t99.5 -305.5v-538q0 -82 -91 -82q-92 0 -92 82v512q0 287 -235 287q-49 0 -93.5 -17.5t-74 -43t-51.5 -51t-32 -43.5l-10 -17v-627
q0 -82 -92 -82q-91 0 -91 82zM601 1327l180 157q24 20 43 20q24 0 42.5 -18.5t18.5 -42.5q0 -18 -22 -43l-190 -206q-39 -42 -80 -42q-42 0 -80 41l-182 203q-23 26 -23 44q0 25 20 44t46 19q23 0 47 -21z" />
    <glyph glyph-name="napostrophe" unicode="&#x149;" horiz-adv-x="1321" 
d="M295 76v864q0 36 19.5 56t56.5 20t56.5 -19.5t25.5 -60.5l9 -69h3q4 6 11.5 17t36 38.5t62 48.5t89 38t117.5 17q177 0 276.5 -106.5t99.5 -305.5v-538q0 -82 -91 -82q-92 0 -92 82v512q0 287 -235 287q-49 0 -93.5 -17.5t-74 -43t-51.5 -51t-32 -43.5l-10 -17v-627
q0 -82 -92 -82q-91 0 -91 82zM67 1453q0 46 32.5 77t82.5 31t80 -32.5t30 -88.5q0 -69 -36.5 -140t-91.5 -126q-51 -50 -91 -50q-22 0 -35.5 11.5t-13.5 32.5q0 19 17 40.5t43 60t42 91.5q-24 10 -41.5 34.5t-17.5 58.5z" />
    <glyph glyph-name="Eng" unicode="&#x14a;" horiz-adv-x="1490" 
d="M193 73v1179q0 132 133 132q55 0 87 -25t67 -80l536 -843q28 -45 57.5 -97t44.5 -81l16 -29l4 2q-11 121 -12 242l-5 832q0 37 22.5 58t65.5 21q88 0 88 -79v-1237q0 -173 -30 -274t-100 -171q-51 -51 -108.5 -78.5t-105.5 -27.5q-40 0 -60.5 19t-20.5 49q0 42 40 66
q50 27 81 50t62 61.5t45.5 94t14.5 132.5v11q-30 9 -53 30.5t-52 68.5l-536 843q-28 45 -57.5 97t-44.5 81l-16 29l-4 -2q11 -121 12 -242l5 -832q0 -79 -88 -79t-88 79z" />
    <glyph glyph-name="eng" unicode="&#x14b;" horiz-adv-x="1191" 
d="M174 76v864q0 36 19.5 56t56.5 20t56.5 -19.5t25.5 -60.5l9 -69h3q4 6 11.5 17t36 38.5t62 48.5t89 38t117.5 17q376 0 376 -459v-232q0 -220 -16 -360.5t-43.5 -214t-74.5 -132.5q-38 -47 -90 -77t-100 -30q-36 0 -55.5 18t-19.5 47q0 40 36 61q34 19 53 33.5t43 44.5
t37 73t25 110t17 165.5t5 230.5v231q0 170 -51.5 255t-183.5 85q-49 0 -93.5 -17.5t-74 -43t-51.5 -51t-32 -43.5l-10 -17v-627q0 -82 -92 -82q-91 0 -91 82z" />
    <glyph glyph-name="Omacron" unicode="&#x14c;" horiz-adv-x="1488" 
d="M106 671q0 337 179.5 532t470.5 195q282 0 454 -184.5t172 -505.5q0 -337 -180 -532t-470 -195q-282 0 -454 184.5t-172 505.5zM299 691q0 -258 126.5 -405.5t320.5 -147.5q193 0 318 146t125 403q0 130 -35 236t-95.5 175t-141.5 106t-175 37q-193 0 -318 -146
t-125 -404zM483 1717h508q66 0 66 -69q0 -70 -66 -70h-508q-65 0 -65 70q0 69 65 69z" />
    <glyph glyph-name="omacron" unicode="&#x14d;" horiz-adv-x="1177" 
d="M98 486q0 252 137 396t366 144q210 0 343.5 -138.5t133.5 -365.5q0 -252 -136.5 -396.5t-365.5 -144.5q-210 0 -344 139t-134 366zM286 506q0 -175 86.5 -275.5t218.5 -100.5q133 0 216.5 97.5t83.5 274.5q0 174 -86.5 275t-217.5 101q-134 0 -217.5 -97.5t-83.5 -274.5z
M337 1387h500q65 0 65 -69t-65 -69h-500q-65 0 -65 69t65 69z" />
    <glyph glyph-name="Obreve" unicode="&#x14e;" horiz-adv-x="1488" 
d="M106 671q0 337 179.5 532t470.5 195q282 0 454 -184.5t172 -505.5q0 -337 -180 -532t-470 -195q-282 0 -454 184.5t-172 505.5zM299 691q0 -258 126.5 -405.5t320.5 -147.5q193 0 318 146t125 403q0 130 -35 236t-95.5 175t-141.5 106t-175 37q-193 0 -318 -146
t-125 -404zM456 1754q0 34 18.5 52.5t49.5 18.5q55 0 64 -55q21 -127 156 -127q129 0 152 127q9 55 63 55q31 0 50 -18.5t19 -52.5q0 -104 -84.5 -178.5t-205.5 -74.5q-127 0 -204.5 73t-77.5 180z" />
    <glyph glyph-name="obreve" unicode="&#x14f;" horiz-adv-x="1177" 
d="M98 486q0 252 137 396t366 144q210 0 343.5 -138.5t133.5 -365.5q0 -252 -136.5 -396.5t-365.5 -144.5q-210 0 -344 139t-134 366zM286 506q0 -175 86.5 -275.5t218.5 -100.5q133 0 216.5 97.5t83.5 274.5q0 174 -86.5 275t-217.5 101q-134 0 -217.5 -97.5t-83.5 -274.5z
M309 1409q0 31 18.5 48.5t48.5 17.5q54 0 61 -54q20 -139 151 -139q68 0 104.5 37.5t43.5 101.5q3 26 19.5 40t41.5 14q30 0 48.5 -17.5t18.5 -48.5q0 -113 -77.5 -188.5t-204.5 -75.5q-117 0 -195 71t-78 193z" />
    <glyph glyph-name="Ohungarumlaut" unicode="&#x150;" horiz-adv-x="1488" 
d="M106 671q0 337 179.5 532t470.5 195q282 0 454 -184.5t172 -505.5q0 -337 -180 -532t-470 -195q-282 0 -454 184.5t-172 505.5zM299 691q0 -258 126.5 -405.5t320.5 -147.5q193 0 318 146t125 403q0 130 -35 236t-95.5 175t-141.5 106t-175 37q-193 0 -318 -146
t-125 -404zM501 1572l180 221q28 34 59 34q36 0 67.5 -28t31.5 -62q0 -26 -31 -53l-218 -195q-21 -20 -42 -20q-25 0 -45 18.5t-20 44.5q0 18 18 40zM872 1577l212 184q32 28 57 28q36 0 64.5 -32.5t28.5 -68.5q0 -21 -10 -34.5t-35 -27.5l-239 -147q-22 -14 -40 -14
q-24 0 -43.5 20.5t-19.5 45.5q0 24 25 46z" />
    <glyph glyph-name="ohungarumlaut" unicode="&#x151;" horiz-adv-x="1177" 
d="M98 486q0 252 137 396t366 144q210 0 343.5 -138.5t133.5 -365.5q0 -252 -136.5 -396.5t-365.5 -144.5q-210 0 -344 139t-134 366zM286 506q0 -175 86.5 -275.5t218.5 -100.5q133 0 216.5 97.5t83.5 274.5q0 174 -86.5 275t-217.5 101q-134 0 -217.5 -97.5t-83.5 -274.5z
M348 1251l153 234q14 21 27.5 30.5t34.5 9.5q37 0 68 -27.5t31 -60.5q0 -23 -25 -49l-184 -205q-30 -33 -55 -33q-26 0 -46.5 17.5t-20.5 40.5q0 16 17 43zM690 1249l179 231q26 33 57 33q38 0 69.5 -30t31.5 -64q0 -26 -31 -54l-212 -198q-23 -20 -43 -20q-25 0 -46 18.5
t-21 44.5q0 16 16 39z" />
    <glyph glyph-name="OE" unicode="&#x152;" horiz-adv-x="1857" 
d="M979 164v1044q-91 33 -217 33q-207 0 -335 -145t-128 -405t130 -407t337 -147q113 0 213 27zM1167 631v-476h530q33 0 51.5 -20t18.5 -58q0 -37 -18.5 -57t-51.5 -20h-695q-136 -19 -253 -19q-293 0 -468 184t-175 506q0 339 182.5 533t484.5 194q110 0 233 -20h686
q33 0 52 -20t19 -56q0 -38 -18.5 -58.5t-52.5 -20.5h-525v-438h453q33 0 51.5 -20t18.5 -57t-18.5 -57t-51.5 -20h-453z" />
    <glyph glyph-name="oe" unicode="&#x153;" horiz-adv-x="1864" 
d="M286 506q0 -175 86.5 -275.5t218.5 -100.5q133 0 216.5 97.5t83.5 274.5q0 174 -86.5 275t-217.5 101q-134 0 -217.5 -97.5t-83.5 -274.5zM1654 484h-578v-7q3 -161 92.5 -253t235.5 -92q67 0 120 13t85 25.5t49 12.5q26 0 42 -17t16 -42q0 -33 -26 -58q-30 -31 -115 -58
t-201 -27q-137 0 -238.5 54t-161.5 148q-131 -202 -398 -202q-210 0 -344 139t-134 366q0 252 137 396t366 144q136 0 234 -57.5t150 -150.5q57 94 153 151t227 57q177 0 285.5 -115.5t108.5 -313.5q0 -113 -105 -113zM1083 615h503q-27 270 -243 270q-96 0 -166 -68.5
t-94 -201.5z" />
    <glyph glyph-name="Racute" unicode="&#x154;" horiz-adv-x="1171" 
d="M379 594v-517q0 -83 -93 -83t-93 83v1211q0 43 23.5 66.5t66.5 23.5h279q251 0 376 -100t125 -270q0 -148 -89.5 -250.5t-239.5 -133.5l317 -475q26 -40 26 -65q0 -38 -33 -65.5t-73 -27.5q-35 0 -59 24q-14 14 -33 44l-341 535h-159zM379 747h172q159 0 239 66t80 178
q0 234 -321 234h-170v-478zM498 1608l222 203q25 23 50 23q37 0 66.5 -34t29.5 -71q0 -31 -40 -58l-247 -165q-23 -15 -43 -15q-28 0 -47.5 21t-19.5 47q0 24 29 49z" />
    <glyph glyph-name="racute" unicode="&#x155;" horiz-adv-x="716" 
d="M174 76v864q0 36 19.5 56t56.5 20t56.5 -20t25.5 -62l12 -92h3q43 83 108.5 133.5t140.5 50.5q52 0 79.5 -25t27.5 -72q0 -48 -23 -75.5t-54 -27.5q-14 0 -34.5 5t-34.5 5q-106 0 -200 -181v-579q0 -82 -92 -82q-91 0 -91 82zM347 1255l168 235q25 35 57 35
q36 0 69.5 -29t33.5 -67q0 -24 -30 -52l-199 -204q-25 -26 -50 -26q-28 0 -48 19.5t-20 45.5q0 18 19 43z" />
    <glyph glyph-name="Rcommaaccent" unicode="&#x156;" horiz-adv-x="1171" 
d="M379 594v-517q0 -83 -93 -83t-93 83v1211q0 43 23.5 66.5t66.5 23.5h279q251 0 376 -100t125 -270q0 -148 -89.5 -250.5t-239.5 -133.5l317 -475q26 -40 26 -65q0 -38 -33 -65.5t-73 -27.5q-35 0 -59 24q-14 14 -33 44l-341 535h-159zM379 747h172q159 0 239 66t80 178
q0 234 -321 234h-170v-478zM500 -232q0 49 32.5 81t80.5 32q49 0 79 -31.5t30 -83.5q0 -53 -33.5 -102.5t-82 -82.5t-101 -53t-92.5 -20q-32 0 -49.5 13.5t-17.5 36.5q0 21 14 35q12 12 41.5 25.5t63.5 34t60 50.5q-25 28 -25 65z" />
    <glyph glyph-name="rcommaaccent" unicode="&#x157;" horiz-adv-x="716" 
d="M174 76v864q0 36 19.5 56t56.5 20t56.5 -20t25.5 -62l12 -92h3q43 83 108.5 133.5t140.5 50.5q52 0 79.5 -25t27.5 -72q0 -48 -23 -75.5t-54 -27.5q-14 0 -34.5 5t-34.5 5q-106 0 -200 -181v-579q0 -82 -92 -82q-91 0 -91 82zM210 -232q0 49 32.5 81t80.5 32
q49 0 79 -31.5t30 -83.5q0 -53 -33.5 -102.5t-82 -82.5t-101 -53t-92.5 -20q-32 0 -49.5 13.5t-17.5 36.5q0 21 14 35q12 12 41.5 25.5t63.5 34t60 50.5q-25 28 -25 65z" />
    <glyph glyph-name="Rcaron" unicode="&#x158;" horiz-adv-x="1171" 
d="M379 594v-517q0 -83 -93 -83t-93 83v1211q0 43 23.5 66.5t66.5 23.5h279q251 0 376 -100t125 -270q0 -148 -89.5 -250.5t-239.5 -133.5l317 -475q26 -40 26 -65q0 -38 -33 -65.5t-73 -27.5q-35 0 -59 24q-14 14 -33 44l-341 535h-159zM379 747h172q159 0 239 66t80 178
q0 234 -321 234h-170v-478zM574 1670l189 139q26 18 44 18q23 0 41.5 -18.5t18.5 -42.5q0 -22 -27 -49l-189 -178q-44 -41 -86 -41q-43 0 -86 41l-184 179q-22 22 -22 44q0 26 19.5 45t45.5 19q20 0 45 -18z" />
    <glyph glyph-name="rcaron" unicode="&#x159;" horiz-adv-x="716" 
d="M174 76v864q0 36 19.5 56t56.5 20t56.5 -20t25.5 -62l12 -92h3q43 83 108.5 133.5t140.5 50.5q52 0 79.5 -25t27.5 -72q0 -48 -23 -75.5t-54 -27.5q-14 0 -34.5 5t-34.5 5q-106 0 -200 -181v-579q0 -82 -92 -82q-91 0 -91 82zM401 1327l180 157q24 20 43 20
q24 0 42.5 -18.5t18.5 -42.5q0 -18 -22 -43l-190 -206q-39 -42 -80 -42q-42 0 -80 41l-182 203q-23 26 -23 44q0 25 20 44t46 19q23 0 47 -21z" />
    <glyph glyph-name="Sacute" unicode="&#x15a;" horiz-adv-x="1095" 
d="M132 1013q0 171 122.5 277.5t344.5 106.5q108 0 187 -25t110 -56q29 -29 29 -66q0 -31 -20 -50t-52 -19q-21 0 -54 15.5t-87.5 30.5t-128.5 15q-128 0 -195 -56.5t-67 -150.5q0 -51 22.5 -90.5t60.5 -65t87 -46.5t103.5 -40t109 -40t103.5 -52t87 -70.5t60.5 -101
t22.5 -138.5q0 -185 -128 -297t-365 -112q-124 0 -210.5 26.5t-119.5 59.5q-29 29 -29 67q0 31 19.5 50.5t51.5 19.5q17 0 42.5 -10.5t52 -23.5t82.5 -23.5t127 -10.5q139 0 213.5 63.5t74.5 168.5q0 55 -22.5 97.5t-60.5 70.5t-87 50.5t-103.5 42t-109 40t-103.5 50t-87 67
t-60.5 95.5t-22.5 131zM455 1608l222 203q25 23 50 23q37 0 66.5 -34t29.5 -71q0 -31 -40 -58l-247 -165q-23 -15 -43 -15q-28 0 -47.5 21t-19.5 47q0 24 29 49z" />
    <glyph glyph-name="sacute" unicode="&#x15b;" horiz-adv-x="911" 
d="M116 733q0 127 101 210t282 83q94 0 155.5 -19.5t86.5 -44.5t25 -62q0 -27 -18.5 -45t-46.5 -18q-13 0 -81 22.5t-137 22.5q-93 0 -140 -35.5t-47 -92.5q0 -43 28.5 -74t74.5 -50.5t101.5 -37t111 -40t101.5 -53t74.5 -83t28.5 -123.5q0 -135 -107 -223t-299 -88
q-111 0 -179.5 21t-95.5 48q-25 25 -25 62q0 30 18 48.5t47 18.5q15 0 46.5 -13.5t84 -27t119.5 -13.5q105 0 157.5 40t52.5 106q0 45 -28.5 77.5t-74.5 52t-101 37.5t-110.5 40.5t-101.5 52t-74.5 81t-28.5 120.5zM365 1255l168 235q25 35 57 35q36 0 69.5 -29t33.5 -67
q0 -24 -30 -52l-199 -204q-25 -26 -50 -26q-28 0 -48 19.5t-20 45.5q0 18 19 43z" />
    <glyph glyph-name="Scircumflex" unicode="&#x15c;" horiz-adv-x="1095" 
d="M132 1013q0 171 122.5 277.5t344.5 106.5q108 0 187 -25t110 -56q29 -29 29 -66q0 -31 -20 -50t-52 -19q-21 0 -54 15.5t-87.5 30.5t-128.5 15q-128 0 -195 -56.5t-67 -150.5q0 -51 22.5 -90.5t60.5 -65t87 -46.5t103.5 -40t109 -40t103.5 -52t87 -70.5t60.5 -101
t22.5 -138.5q0 -185 -128 -297t-365 -112q-124 0 -210.5 26.5t-119.5 59.5q-29 29 -29 67q0 31 19.5 50.5t51.5 19.5q17 0 42.5 -10.5t52 -23.5t82.5 -23.5t127 -10.5q139 0 213.5 63.5t74.5 168.5q0 55 -22.5 97.5t-60.5 70.5t-87 50.5t-103.5 42t-109 40t-103.5 50t-87 67
t-60.5 95.5t-22.5 131zM552 1653l-189 -140q-25 -18 -44 -18q-23 0 -41.5 18.5t-18.5 42.5q0 23 27 49l189 178q45 42 86 42q43 0 86 -41l184 -180q22 -22 22 -43q0 -27 -19.5 -45.5t-45.5 -18.5q-22 0 -45 18z" />
    <glyph glyph-name="scircumflex" unicode="&#x15d;" horiz-adv-x="911" 
d="M116 733q0 127 101 210t282 83q94 0 155.5 -19.5t86.5 -44.5t25 -62q0 -27 -18.5 -45t-46.5 -18q-13 0 -81 22.5t-137 22.5q-93 0 -140 -35.5t-47 -92.5q0 -43 28.5 -74t74.5 -50.5t101.5 -37t111 -40t101.5 -53t74.5 -83t28.5 -123.5q0 -135 -107 -223t-299 -88
q-111 0 -179.5 21t-95.5 48q-25 25 -25 62q0 30 18 48.5t47 18.5q15 0 46.5 -13.5t84 -27t119.5 -13.5q105 0 157.5 40t52.5 106q0 45 -28.5 77.5t-74.5 52t-101 37.5t-110.5 40.5t-101.5 52t-74.5 81t-28.5 120.5zM455 1330l-179 -158q-23 -19 -43 -19q-24 0 -43 18.5
t-19 42.5q0 19 23 42l189 206q39 42 81 42q44 0 80 -41l181 -202q23 -25 23 -44q0 -26 -20 -45t-46 -19q-20 0 -47 21z" />
    <glyph glyph-name="Scedilla" unicode="&#x15e;" horiz-adv-x="1095" 
d="M418 -160l36 142q-113 4 -191.5 29.5t-108.5 56.5q-29 28 -29 67q0 31 19.5 50.5t51.5 19.5q17 0 42.5 -10.5t52 -23.5t82.5 -23.5t127 -10.5q139 0 213.5 63.5t74.5 168.5q0 55 -22.5 97.5t-60.5 70.5t-87 50.5t-103.5 42t-109 40t-103.5 50t-87 67t-60.5 95.5
t-22.5 131q0 171 122.5 277.5t344.5 106.5q108 0 187 -25t110 -56q29 -29 29 -66q0 -31 -20 -50t-52 -19q-21 0 -54 15.5t-87.5 30.5t-128.5 15q-128 0 -195 -56.5t-67 -150.5q0 -51 22.5 -90.5t60.5 -65t87 -46.5t103.5 -40t109 -40t103.5 -52t87 -70.5t60.5 -101
t22.5 -138.5q0 -165 -104 -273.5t-296 -129.5l-24 -93q77 -9 122 -51.5t45 -115.5q0 -94 -75.5 -157t-206.5 -63q-66 0 -95.5 20t-29.5 50q0 23 14 37t39 14q8 0 26.5 -1.5t27.5 -1.5q137 0 137 87q0 69 -88 69h-13q-52 0 -38 58z" />
    <glyph glyph-name="scedilla" unicode="&#x15f;" horiz-adv-x="911" 
d="M340 -160l35 143q-94 3 -154.5 23t-85.5 45t-25 62q0 30 18 48.5t47 18.5q15 0 46.5 -13.5t84 -27t119.5 -13.5q105 0 157.5 40t52.5 106q0 45 -28.5 77.5t-74.5 52t-101 37.5t-110.5 40.5t-101.5 52t-74.5 81t-28.5 120.5q0 127 101 210t282 83q94 0 155.5 -19.5
t86.5 -44.5t25 -62q0 -27 -18.5 -45t-46.5 -18q-13 0 -81 22.5t-137 22.5q-93 0 -140 -35.5t-47 -92.5q0 -43 28.5 -74t74.5 -50.5t101.5 -37t111 -40t101.5 -53t74.5 -83t28.5 -123.5q0 -117 -83 -201.5t-233 -104.5l-25 -92q77 -9 121.5 -51.5t44.5 -115.5
q0 -95 -75 -157.5t-207 -62.5q-65 0 -94.5 20t-29.5 50q0 23 13.5 37t38.5 14q8 0 26.5 -1.5t28.5 -1.5q137 0 137 87q0 69 -88 69h-13q-52 0 -38 58z" />
    <glyph glyph-name="Scaron" unicode="&#x160;" horiz-adv-x="1095" 
d="M132 1013q0 171 122.5 277.5t344.5 106.5q108 0 187 -25t110 -56q29 -29 29 -66q0 -31 -20 -50t-52 -19q-21 0 -54 15.5t-87.5 30.5t-128.5 15q-128 0 -195 -56.5t-67 -150.5q0 -51 22.5 -90.5t60.5 -65t87 -46.5t103.5 -40t109 -40t103.5 -52t87 -70.5t60.5 -101
t22.5 -138.5q0 -185 -128 -297t-365 -112q-124 0 -210.5 26.5t-119.5 59.5q-29 29 -29 67q0 31 19.5 50.5t51.5 19.5q17 0 42.5 -10.5t52 -23.5t82.5 -23.5t127 -10.5q139 0 213.5 63.5t74.5 168.5q0 55 -22.5 97.5t-60.5 70.5t-87 50.5t-103.5 42t-109 40t-103.5 50t-87 67
t-60.5 95.5t-22.5 131zM550 1670l189 139q26 18 44 18q23 0 41.5 -18.5t18.5 -42.5q0 -22 -27 -49l-189 -178q-44 -41 -86 -41q-43 0 -86 41l-184 179q-22 22 -22 44q0 26 19.5 45t45.5 19q20 0 45 -18z" />
    <glyph glyph-name="scaron" unicode="&#x161;" horiz-adv-x="911" 
d="M116 733q0 127 101 210t282 83q94 0 155.5 -19.5t86.5 -44.5t25 -62q0 -27 -18.5 -45t-46.5 -18q-13 0 -81 22.5t-137 22.5q-93 0 -140 -35.5t-47 -92.5q0 -43 28.5 -74t74.5 -50.5t101.5 -37t111 -40t101.5 -53t74.5 -83t28.5 -123.5q0 -135 -107 -223t-299 -88
q-111 0 -179.5 21t-95.5 48q-25 25 -25 62q0 30 18 48.5t47 18.5q15 0 46.5 -13.5t84 -27t119.5 -13.5q105 0 157.5 40t52.5 106q0 45 -28.5 77.5t-74.5 52t-101 37.5t-110.5 40.5t-101.5 52t-74.5 81t-28.5 120.5zM458 1327l180 157q24 20 43 20q24 0 42.5 -18.5
t18.5 -42.5q0 -18 -22 -43l-190 -206q-39 -42 -80 -42q-42 0 -80 41l-182 203q-23 26 -23 44q0 25 20 44t46 19q23 0 47 -21z" />
    <glyph glyph-name="uni0162" unicode="&#x162;" horiz-adv-x="1115" 
d="M464 1221h-366q-34 0 -52.5 20.5t-18.5 58.5t19 58t52 20h919q33 0 52 -20t19 -58t-18.5 -58.5t-52.5 -20.5h-366v-1144q0 -56 -45 -74l-28 -108q76 -9 121 -51.5t45 -115.5q0 -95 -75 -157.5t-207 -62.5q-65 0 -94.5 20t-29.5 50q0 23 13.5 37t38.5 14q8 0 26.5 -1.5
t28.5 -1.5q137 0 137 87q0 69 -89 69h-13q-24 0 -34 15t-3 43l44 177q-23 18 -23 60v1144z" />
    <glyph glyph-name="uni0163" unicode="&#x163;" horiz-adv-x="703" 
d="M209 863h-111q-30 0 -48 19t-18 53t18 53.5t48 19.5h113l25 189q12 85 84 85q34 0 53 -19.5t19 -55.5v-199h209q30 0 48.5 -19.5t18.5 -53.5t-18 -53t-48 -19h-210v-576q0 -79 28 -113.5t89 -34.5q35 0 68.5 9t42.5 9q25 0 40.5 -16t15.5 -42q0 -32 -25 -57
q-54 -54 -191 -52l-25 -95q77 -9 122 -51.5t45 -115.5q0 -95 -75.5 -157.5t-207.5 -62.5q-65 0 -94.5 20t-29.5 50q0 23 13.5 37t38.5 14q8 0 26.5 -1.5t28.5 -1.5q137 0 137 87q0 69 -88 69h-13q-52 0 -38 58l42 170q-133 48 -133 232v621z" />
    <glyph glyph-name="Tcaron" unicode="&#x164;" horiz-adv-x="1115" 
d="M464 1221h-366q-34 0 -52.5 20.5t-18.5 58.5t19 58t52 20h919q33 0 52 -20t19 -58t-18.5 -58.5t-52.5 -20.5h-366v-1144q0 -83 -93 -83q-94 0 -94 83v1144zM562 1670l189 139q26 18 44 18q23 0 41.5 -18.5t18.5 -42.5q0 -22 -27 -49l-189 -178q-44 -41 -86 -41
q-43 0 -86 41l-184 179q-22 22 -22 44q0 26 19.5 45t45.5 19q20 0 45 -18z" />
    <glyph glyph-name="tcaron" unicode="&#x165;" horiz-adv-x="713" 
d="M209 863h-111q-30 0 -48 19t-18 53t18 53.5t48 19.5h113l25 189q12 85 84 85q34 0 53 -19.5t19 -55.5v-199h210q30 0 48 -19.5t18 -53.5t-18 -53t-48 -19h-210v-576q0 -79 28 -113.5t89 -34.5q35 0 68.5 9t42.5 9q25 0 40.5 -16t15.5 -42q0 -32 -25 -57q-52 -52 -183 -52
q-259 0 -259 251v622zM501 1240l70 254q9 34 26.5 49t48.5 15q39 0 69.5 -21.5t30.5 -51.5q0 -14 -13 -43l-116 -255q-17 -39 -57 -39q-26 0 -46.5 15t-20.5 39q0 14 8 38z" />
    <glyph glyph-name="Tbar" unicode="&#x166;" horiz-adv-x="1115" 
d="M464 1221h-366q-34 0 -52.5 20.5t-18.5 58.5t19 58t52 20h919q33 0 52 -20t19 -58t-18.5 -58.5t-52.5 -20.5h-366v-438h237q30 0 48 -19t18 -53t-18 -53t-48 -19h-237v-562q0 -83 -93 -83q-94 0 -94 83v562h-237q-30 0 -48 19t-18 53t18 53t48 19h237v438z" />
    <glyph glyph-name="tbar" unicode="&#x167;" horiz-adv-x="764" 
d="M240 863h-111q-30 0 -47.5 19t-17.5 53t17.5 53.5t47.5 19.5h114l24 189q12 85 84 85q35 0 53.5 -19.5t18.5 -55.5v-199h210q30 0 48 -19.5t18 -53.5t-18 -53t-48 -19h-210v-207h198q30 0 48 -18.5t18 -51.5t-18 -51.5t-48 -18.5h-198v-229q0 -79 28.5 -113.5t88.5 -34.5
q36 0 69 9t42 9q26 0 41 -16t15 -42q0 -32 -25 -57q-18 -19 -64 -35.5t-119 -16.5q-259 0 -259 251v275h-109q-30 0 -47.5 18.5t-17.5 51.5t17.5 51.5t47.5 18.5h109v207z" />
    <glyph glyph-name="Utilde" unicode="&#x168;" horiz-adv-x="1421" 
d="M180 539v762q0 83 94 83t94 -83v-734q0 -218 93.5 -323.5t255.5 -105.5q152 0 244 101t92 301v761q0 83 93 83q94 0 94 -83v-735q0 -289 -142 -437t-395 -148t-388 140.5t-135 417.5zM564 1628q-28 0 -50.5 -12.5t-34 -27.5t-28.5 -27.5t-36 -12.5q-23 0 -39 15t-16 42
q0 53 62 111t152 58q45 0 89 -15.5t72.5 -33.5t63.5 -33.5t64 -15.5q28 0 50.5 12.5t34.5 28t29 28t36 12.5q23 0 38.5 -15.5t15.5 -42.5q0 -53 -62 -110.5t-152 -57.5q-44 0 -88 15t-73 33.5t-64 33.5t-64 15z" />
    <glyph glyph-name="utilde" unicode="&#x169;" horiz-adv-x="1193" 
d="M164 393v539q0 82 92 82q91 0 91 -82v-512q0 -287 228 -287q49 0 93.5 17.5t74 43t51.5 51t32 43.5l10 17v627q0 82 92 82q91 0 91 -82v-864q0 -37 -19.5 -57t-56.5 -20q-70 0 -82 81l-9 69h-3q-4 -6 -11.5 -17t-36 -38.5t-62 -48.5t-89 -38t-117.5 -17
q-172 0 -270.5 106t-98.5 305zM455 1298q-29 0 -51.5 -13.5t-34 -29t-29 -29t-38.5 -13.5q-24 0 -40.5 15.5t-16.5 41.5q0 58 64.5 115.5t155.5 57.5q45 0 87.5 -16.5t69 -36.5t57.5 -36.5t56 -16.5q29 0 51.5 13.5t34 29.5t29.5 29.5t39 13.5q23 0 39.5 -15.5t16.5 -41.5
q0 -58 -64.5 -115.5t-155.5 -57.5q-45 0 -87.5 16.5t-69 36t-57.5 36t-56 16.5z" />
    <glyph glyph-name="Umacron" unicode="&#x16a;" horiz-adv-x="1421" 
d="M180 539v762q0 83 94 83t94 -83v-734q0 -218 93.5 -323.5t255.5 -105.5q152 0 244 101t92 301v761q0 83 93 83q94 0 94 -83v-735q0 -289 -142 -437t-395 -148t-388 140.5t-135 417.5zM460 1717h508q66 0 66 -69q0 -70 -66 -70h-508q-65 0 -65 70q0 69 65 69z" />
    <glyph glyph-name="umacron" unicode="&#x16b;" horiz-adv-x="1193" 
d="M164 393v539q0 82 92 82q91 0 91 -82v-512q0 -287 228 -287q49 0 93.5 17.5t74 43t51.5 51t32 43.5l10 17v627q0 82 92 82q91 0 91 -82v-864q0 -37 -19.5 -57t-56.5 -20q-70 0 -82 81l-9 69h-3q-4 -6 -11.5 -17t-36 -38.5t-62 -48.5t-89 -38t-117.5 -17
q-172 0 -270.5 106t-98.5 305zM342 1387h500q65 0 65 -69t-65 -69h-500q-65 0 -65 69t65 69z" />
    <glyph glyph-name="Ubreve" unicode="&#x16c;" horiz-adv-x="1421" 
d="M180 539v762q0 83 94 83t94 -83v-734q0 -218 93.5 -323.5t255.5 -105.5q152 0 244 101t92 301v761q0 83 93 83q94 0 94 -83v-735q0 -289 -142 -437t-395 -148t-388 140.5t-135 417.5zM434 1754q0 34 18.5 52.5t49.5 18.5q55 0 64 -55q21 -127 156 -127q129 0 152 127
q9 55 63 55q31 0 50 -18.5t19 -52.5q0 -104 -84.5 -178.5t-205.5 -74.5q-127 0 -204.5 73t-77.5 180z" />
    <glyph glyph-name="ubreve" unicode="&#x16d;" horiz-adv-x="1193" 
d="M164 393v539q0 82 92 82q91 0 91 -82v-512q0 -287 228 -287q49 0 93.5 17.5t74 43t51.5 51t32 43.5l10 17v627q0 82 92 82q91 0 91 -82v-864q0 -37 -19.5 -57t-56.5 -20q-70 0 -82 81l-9 69h-3q-4 -6 -11.5 -17t-36 -38.5t-62 -48.5t-89 -38t-117.5 -17
q-172 0 -270.5 106t-98.5 305zM317 1409q0 31 18.5 48.5t48.5 17.5q54 0 61 -54q20 -139 151 -139q68 0 104.5 37.5t43.5 101.5q3 26 19.5 40t41.5 14q30 0 48.5 -17.5t18.5 -48.5q0 -113 -77.5 -188.5t-204.5 -75.5q-117 0 -195 71t-78 193z" />
    <glyph glyph-name="Uring" unicode="&#x16e;" horiz-adv-x="1421" 
d="M180 539v762q0 83 94 83t94 -83v-734q0 -218 93.5 -323.5t255.5 -105.5q152 0 244 101t92 301v761q0 83 93 83q94 0 94 -83v-735q0 -289 -142 -437t-395 -148t-388 140.5t-135 417.5zM464 1715q0 98 73 164.5t184 66.5t180 -62.5t69 -160.5t-73 -165t-184 -67
q-112 0 -180.5 63t-68.5 161zM584 1719q0 -59 36 -95t97 -36t97 36t36 95t-36 94.5t-97 35.5t-97 -35.5t-36 -94.5z" />
    <glyph glyph-name="uring" unicode="&#x16f;" horiz-adv-x="1193" 
d="M164 393v539q0 82 92 82q91 0 91 -82v-512q0 -287 228 -287q49 0 93.5 17.5t74 43t51.5 51t32 43.5l10 17v627q0 82 92 82q91 0 91 -82v-864q0 -37 -19.5 -57t-56.5 -20q-70 0 -82 81l-9 69h-3q-4 -6 -11.5 -17t-36 -38.5t-62 -48.5t-89 -38t-117.5 -17
q-172 0 -270.5 106t-98.5 305zM346 1344q0 98 71 164t179 66t175 -62t67 -159q0 -98 -70.5 -164.5t-179.5 -66.5t-175.5 62t-66.5 160zM465 1348q0 -59 34.5 -93.5t92.5 -34.5t92.5 34.5t34.5 94.5q0 58 -34.5 92.5t-92.5 34.5t-92.5 -34.5t-34.5 -93.5z" />
    <glyph glyph-name="Uhungarumlaut" unicode="&#x170;" horiz-adv-x="1421" 
d="M180 539v762q0 83 94 83t94 -83v-734q0 -218 93.5 -323.5t255.5 -105.5q152 0 244 101t92 301v761q0 83 93 83q94 0 94 -83v-735q0 -289 -142 -437t-395 -148t-388 140.5t-135 417.5zM485 1572l180 221q28 34 59 34q36 0 67.5 -28t31.5 -62q0 -26 -31 -53l-218 -195
q-21 -20 -42 -20q-25 0 -45 18.5t-20 44.5q0 18 18 40zM856 1577l212 184q32 28 57 28q36 0 64.5 -32.5t28.5 -68.5q0 -21 -10 -34.5t-35 -27.5l-239 -147q-22 -14 -40 -14q-24 0 -43.5 20.5t-19.5 45.5q0 24 25 46z" />
    <glyph glyph-name="uhungarumlaut" unicode="&#x171;" horiz-adv-x="1193" 
d="M164 393v539q0 82 92 82q91 0 91 -82v-512q0 -287 228 -287q49 0 93.5 17.5t74 43t51.5 51t32 43.5l10 17v627q0 82 92 82q91 0 91 -82v-864q0 -37 -19.5 -57t-56.5 -20q-70 0 -82 81l-9 69h-3q-4 -6 -11.5 -17t-36 -38.5t-62 -48.5t-89 -38t-117.5 -17
q-172 0 -270.5 106t-98.5 305zM346 1251l153 234q14 21 27.5 30.5t34.5 9.5q37 0 68 -27.5t31 -60.5q0 -23 -25 -49l-184 -205q-30 -33 -55 -33q-26 0 -46.5 17.5t-20.5 40.5q0 16 17 43zM688 1249l179 231q26 33 57 33q38 0 69.5 -30t31.5 -64q0 -26 -31 -54l-212 -198
q-23 -20 -43 -20q-25 0 -46 18.5t-21 44.5q0 16 16 39z" />
    <glyph glyph-name="Uogonek" unicode="&#x172;" horiz-adv-x="1421" 
d="M180 539v762q0 83 94 83t94 -83v-734q0 -218 93.5 -323.5t255.5 -105.5q152 0 244 101t92 301v761q0 83 93 83q94 0 94 -83v-735q0 -297 -152 -447q-26 -26 -110 -86t-132 -108q-100 -100 -100 -197q0 -85 81 -85q26 0 53.5 8.5t40.5 8.5q23 0 36.5 -14.5t13.5 -36.5
q0 -30 -22 -51q-22 -22 -65.5 -36t-98.5 -14q-99 0 -154 50t-55 134q0 78 51.5 155t128.5 137q-26 -3 -53 -3q-253 0 -388 140.5t-135 417.5z" />
    <glyph glyph-name="uogonek" unicode="&#x173;" horiz-adv-x="1193" 
d="M164 393v539q0 82 92 82q91 0 91 -82v-512q0 -287 228 -287q49 0 93.5 17.5t74 43t51.5 51t32 43.5l10 17v627q0 82 92 82q91 0 91 -82v-864q0 -23 -7 -37.5t-27 -34.5q-101 -102 -131 -144q-50 -69 -50 -128q0 -39 19.5 -60t53.5 -21q26 0 53.5 8.5t40.5 8.5
q23 0 36.5 -14.5t13.5 -36.5q0 -29 -23 -51q-50 -50 -163 -50q-94 0 -147 49t-53 131q0 89 72 179t171 158q-11 11 -17 47l-9 69h-3q-4 -6 -11.5 -17t-36 -38.5t-62 -48.5t-89 -38t-117.5 -17q-172 0 -270.5 106t-98.5 305z" />
    <glyph glyph-name="Wcircumflex" unicode="&#x174;" horiz-adv-x="1903" 
d="M388 115l-301 1126q-12 46 -12 61q0 39 31.5 62t71.5 23q38 0 60 -22q15 -15 31 -76l230 -897q12 -49 22.5 -99.5t14.5 -76.5l4 -26h4q15 88 45 202l231 882q16 63 49 88t88 25q56 0 88.5 -25t48.5 -88l230 -878q12 -48 23.5 -99.5t16.5 -78.5l5 -28h4q18 100 44 204
l221 894q15 62 30 77q22 22 62 22q38 0 68 -21.5t30 -57.5q0 -12 -13 -60l-302 -1133q-16 -59 -41 -86q-35 -35 -105 -35q-66 0 -101 35q-25 25 -41 85l-228 867q-12 44 -23 93.5t-16 77.5l-6 28h-4q-18 -100 -44 -199l-227 -867q-16 -60 -41 -85q-35 -35 -101 -35
q-70 0 -105 35q-26 26 -42 86zM951 1653l-189 -140q-25 -18 -44 -18q-23 0 -41.5 18.5t-18.5 42.5q0 23 27 49l189 178q45 42 86 42q43 0 86 -41l184 -180q22 -22 22 -43q0 -27 -19.5 -45.5t-45.5 -18.5q-22 0 -45 18z" />
    <glyph glyph-name="wcircumflex" unicode="&#x175;" horiz-adv-x="1605" 
d="M325 114l-236 759q-14 44 -14 63q0 37 32 59t69 22t58 -21q13 -13 31 -75l172 -591q11 -38 20 -75.5t13 -55.5l3 -18h4q12 64 37 149l168 565q20 69 48 95.5t80 26.5q53 0 81 -26.5t48 -94.5l168 -566q11 -37 20.5 -74.5t12.5 -55.5l4 -19h4q13 65 36 149l165 592
q16 57 31 75q18 20 56 20q36 0 64.5 -20t28.5 -55q0 -22 -13 -63l-236 -761q-21 -66 -46 -93q-28 -31 -91 -31q-61 0 -89 29q-25 26 -46 96l-164 548q-12 40 -21.5 78.5t-12.5 56.5l-4 19h-4q-10 -64 -37 -154l-164 -548q-22 -70 -46 -94q-31 -31 -91 -31q-63 0 -94 31
q-24 24 -45 89zM805 1330l-179 -158q-23 -19 -43 -19q-24 0 -43 18.5t-19 42.5q0 19 23 42l189 206q39 42 81 42q44 0 80 -41l181 -202q23 -25 23 -44q0 -26 -20 -45t-46 -19q-20 0 -47 21z" />
    <glyph glyph-name="Ycircumflex" unicode="&#x176;" horiz-adv-x="1110" 
d="M459 574l-385 635q-22 35 -29 51t-7 34q0 40 33.5 66.5t71.5 26.5q33 0 54 -21q13 -13 41 -62l266 -457l58 -109h4q25 55 58 114l253 451q27 48 41 62q22 22 54 22q38 0 68.5 -26t30.5 -64q0 -24 -35 -82l-389 -641v-497q0 -83 -94 -83t-94 83v497zM557 1653l-189 -140
q-25 -18 -44 -18q-23 0 -41.5 18.5t-18.5 42.5q0 23 27 49l189 178q45 42 86 42q43 0 86 -41l184 -180q22 -22 22 -43q0 -27 -19.5 -45.5t-45.5 -18.5q-22 0 -45 18z" />
    <glyph glyph-name="ycircumflex" unicode="&#x177;" horiz-adv-x="1004" 
d="M405 -10l-338 875q-19 49 -19 66q0 38 32 62t69 24t56 -22q12 -13 32 -67l219 -597l50 -153h4q16 65 48 153l217 602q19 52 30 63q21 21 56 21q36 0 65.5 -21t29.5 -57q0 -17 -17 -60l-308 -792q-121 -311 -248.5 -440.5t-296.5 -129.5q-81 0 -114 33q-22 22 -22 58
q0 29 18 47t49 18q15 0 37.5 -2t36.5 -2q96 0 171.5 80.5t142.5 240.5zM496 1330l-179 -158q-23 -19 -43 -19q-24 0 -43 18.5t-19 42.5q0 19 23 42l189 206q39 42 81 42q44 0 80 -41l181 -202q23 -25 23 -44q0 -26 -20 -45t-46 -19q-20 0 -47 21z" />
    <glyph glyph-name="Ydieresis" unicode="&#x178;" horiz-adv-x="1110" 
d="M459 574l-385 635q-22 35 -29 51t-7 34q0 40 33.5 66.5t71.5 26.5q33 0 54 -21q13 -13 41 -62l266 -457l58 -109h4q25 55 58 114l253 451q27 48 41 62q22 22 54 22q38 0 68.5 -26t30.5 -64q0 -24 -35 -82l-389 -641v-497q0 -83 -94 -83t-94 83v497zM225 1650
q0 51 34.5 85.5t85.5 34.5q52 0 85 -32.5t33 -83.5q0 -52 -34 -87t-86 -35t-85 33t-33 85zM653 1650q0 51 35 85.5t87 34.5q51 0 83.5 -32.5t32.5 -83.5q0 -52 -34 -87t-85 -35q-52 0 -85.5 33t-33.5 85z" />
    <glyph glyph-name="Zacute" unicode="&#x179;" horiz-adv-x="1044" 
d="M306 157h596q34 0 52.5 -20.5t18.5 -58.5t-19 -58t-52 -20h-710q-51 0 -79 26t-28 72q0 41 39 107l609 1016h-556q-34 0 -52.5 20.5t-18.5 58.5t19 58t52 20h670q51 0 79 -26t28 -72q0 -41 -39 -107zM475 1608l222 203q25 23 50 23q37 0 66.5 -34t29.5 -71q0 -31 -40 -58
l-247 -165q-23 -15 -43 -15q-28 0 -47.5 21t-19.5 47q0 24 29 49z" />
    <glyph glyph-name="zacute" unicode="&#x17a;" horiz-adv-x="948" 
d="M143 197l483 666h-440q-30 0 -48 19t-18 53t18 53.5t48 19.5h557q52 0 78.5 -24.5t26.5 -68.5q0 -40 -47 -104l-484 -666h487q30 0 48 -19.5t18 -53.5t-18 -53t-48 -19h-603q-52 0 -78.5 24.5t-26.5 68.5q0 42 47 104zM423 1255l168 235q25 35 57 35q36 0 69.5 -29
t33.5 -67q0 -24 -30 -52l-199 -204q-25 -26 -50 -26q-28 0 -48 19.5t-20 45.5q0 18 19 43z" />
    <glyph glyph-name="Zdotaccent" unicode="&#x17b;" horiz-adv-x="1044" 
d="M306 157h596q34 0 52.5 -20.5t18.5 -58.5t-19 -58t-52 -20h-710q-51 0 -79 26t-28 72q0 41 39 107l609 1016h-556q-34 0 -52.5 20.5t-18.5 58.5t19 58t52 20h670q51 0 79 -26t28 -72q0 -41 -39 -107zM436 1651q0 51 34.5 85.5t86.5 34.5t84.5 -32.5t32.5 -83.5
q0 -52 -34 -86.5t-85 -34.5q-52 0 -85.5 32.5t-33.5 84.5z" />
    <glyph glyph-name="zdotaccent" unicode="&#x17c;" horiz-adv-x="948" 
d="M143 197l483 666h-440q-30 0 -48 19t-18 53t18 53.5t48 19.5h557q52 0 78.5 -24.5t26.5 -68.5q0 -40 -47 -104l-484 -666h487q30 0 48 -19.5t18 -53.5t-18 -53t-48 -19h-603q-52 0 -78.5 24.5t-26.5 68.5q0 42 47 104zM391 1320q0 50 34.5 84.5t85.5 34.5t83.5 -32.5
t32.5 -82.5q0 -51 -33.5 -86t-84.5 -35q-52 0 -85 32.5t-33 84.5z" />
    <glyph glyph-name="Zcaron" unicode="&#x17d;" horiz-adv-x="1044" 
d="M306 157h596q34 0 52.5 -20.5t18.5 -58.5t-19 -58t-52 -20h-710q-51 0 -79 26t-28 72q0 41 39 107l609 1016h-556q-34 0 -52.5 20.5t-18.5 58.5t19 58t52 20h670q51 0 79 -26t28 -72q0 -41 -39 -107zM557 1670l189 139q26 18 44 18q24 0 42 -18.5t18 -42.5q0 -22 -27 -49
l-189 -178q-44 -41 -86 -41q-43 0 -86 41l-184 179q-22 22 -22 44q0 26 19.5 45t45.5 19q20 0 45 -18z" />
    <glyph glyph-name="zcaron" unicode="&#x17e;" horiz-adv-x="948" 
d="M143 197l483 666h-440q-30 0 -48 19t-18 53t18 53.5t48 19.5h557q52 0 78.5 -24.5t26.5 -68.5q0 -40 -47 -104l-484 -666h487q30 0 48 -19.5t18 -53.5t-18 -53t-48 -19h-603q-52 0 -78.5 24.5t-26.5 68.5q0 42 47 104zM515 1327l180 157q24 20 43 20q24 0 42.5 -18.5
t18.5 -42.5q0 -18 -22 -43l-190 -206q-39 -42 -80 -42q-42 0 -80 41l-182 203q-23 26 -23 44q0 25 20 44t46 19q23 0 47 -21z" />
    <glyph glyph-name="florin" unicode="&#x192;" horiz-adv-x="1048" 
d="M413 708h-163q-30 0 -47.5 19.5t-17.5 52.5q0 34 17.5 53.5t47.5 19.5h176l13 142q18 212 115 307.5t265 95.5q112 0 157 -45q24 -23 24 -58q0 -27 -18 -45t-47 -18q-18 0 -51.5 9.5t-70.5 9.5q-83 0 -131 -57t-60 -193l-13 -148h194q30 0 48 -19.5t18 -53.5
q0 -33 -18 -52.5t-48 -19.5h-208l-54 -642q-19 -213 -115.5 -308t-264.5 -95q-113 0 -158 45q-23 23 -23 58q0 27 17.5 44.5t46.5 17.5q18 0 52 -9t71 -9q82 0 130.5 57t60.5 193z" />
    <glyph glyph-name="Acaron" unicode="&#x1cd;" horiz-adv-x="1243" 
d="M341 366l-93 -278q-19 -59 -37 -77q-20 -20 -58 -20t-68 22t-30 59q0 21 17 67l403 1129q20 56 47 82q34 34 99 34t99 -34q28 -28 47 -82l405 -1127q17 -46 17 -65q0 -39 -32.5 -62t-71.5 -23q-37 0 -59 22q-17 16 -36 72l-97 281h-552zM389 517h454l-165 474l-64 200h-4
q-26 -92 -62 -200zM620 1670l189 139q26 18 44 18q23 0 41.5 -18.5t18.5 -42.5q0 -22 -27 -49l-189 -178q-44 -41 -86 -41q-43 0 -86 41l-184 179q-22 22 -22 44q0 26 19.5 45t45.5 19q20 0 45 -18z" />
    <glyph glyph-name="acaron" unicode="&#x1ce;" horiz-adv-x="1074" 
d="M726 262v126q-78 24 -188 24q-248 0 -248 -135q0 -66 50 -109t139 -43q44 0 85.5 14t69.5 34t50 40.5t32 34.5zM726 519v123q0 125 -54.5 179t-183.5 54q-69 0 -126.5 -15t-92.5 -30t-51 -15q-28 0 -45 17.5t-17 47.5t22 53q33 32 132 62t217 30q190 0 286 -88.5
t96 -257.5v-370q0 -105 12 -174t12 -73q0 -31 -21.5 -51t-57.5 -20q-84 0 -109 130h-3q-4 -6 -12.5 -15t-37 -33t-61 -42.5t-84.5 -33.5t-108 -15q-156 0 -246 80.5t-90 206.5q0 132 109.5 202.5t305.5 70.5q58 0 110 -6t75 -12zM530 1327l180 157q24 20 43 20
q24 0 42.5 -18.5t18.5 -42.5q0 -18 -22 -43l-190 -206q-39 -42 -80 -42q-42 0 -80 41l-182 203q-23 26 -23 44q0 25 20 44t46 19q23 0 47 -21z" />
    <glyph glyph-name="Icaron" unicode="&#x1cf;" horiz-adv-x="574" 
d="M193 77v1224q0 83 94 83t94 -83v-1224q0 -83 -94 -83t-94 83zM296 1670l189 139q26 18 44 18q23 0 41.5 -18.5t18.5 -42.5q0 -22 -27 -49l-189 -178q-44 -41 -86 -41q-43 0 -86 41l-184 179q-22 22 -22 44q0 26 19.5 45t45.5 19q20 0 45 -18z" />
    <glyph glyph-name="icaron" unicode="&#x1d0;" horiz-adv-x="530" 
d="M174 76v856q0 82 91 82q92 0 92 -82v-856q0 -82 -92 -82q-91 0 -91 82zM272 1327l152 149q29 28 51 28q25 0 43 -18t18 -41q0 -19 -25 -49l-164 -199q-36 -45 -84 -45t-83 44l-160 200q-23 28 -23 45q0 25 20.5 44t46.5 19q22 0 52 -27z" />
    <glyph glyph-name="Ocaron" unicode="&#x1d1;" horiz-adv-x="1488" 
d="M106 671q0 337 179.5 532t470.5 195q282 0 454 -184.5t172 -505.5q0 -337 -180 -532t-470 -195q-282 0 -454 184.5t-172 505.5zM299 691q0 -258 126.5 -405.5t320.5 -147.5q193 0 318 146t125 403q0 130 -35 236t-95.5 175t-141.5 106t-175 37q-193 0 -318 -146
t-125 -404zM744 1670l189 139q26 18 44 18q23 0 41.5 -18.5t18.5 -42.5q0 -22 -27 -49l-189 -178q-44 -41 -86 -41q-43 0 -86 41l-184 179q-22 22 -22 44q0 26 19.5 45t45.5 19q20 0 45 -18z" />
    <glyph glyph-name="ocaron" unicode="&#x1d2;" horiz-adv-x="1177" 
d="M98 486q0 252 137 396t366 144q210 0 343.5 -138.5t133.5 -365.5q0 -252 -136.5 -396.5t-365.5 -144.5q-210 0 -344 139t-134 366zM286 506q0 -175 86.5 -275.5t218.5 -100.5q133 0 216.5 97.5t83.5 274.5q0 174 -86.5 275t-217.5 101q-134 0 -217.5 -97.5t-83.5 -274.5z
M596 1327l180 157q24 20 43 20q24 0 42.5 -18.5t18.5 -42.5q0 -18 -22 -43l-190 -206q-39 -42 -80 -42q-42 0 -80 41l-182 203q-23 26 -23 44q0 25 20 44t46 19q23 0 47 -21z" />
    <glyph glyph-name="Ucaron" unicode="&#x1d3;" horiz-adv-x="1421" 
d="M180 539v762q0 83 94 83t94 -83v-734q0 -218 93.5 -323.5t255.5 -105.5q152 0 244 101t92 301v761q0 83 93 83q94 0 94 -83v-735q0 -289 -142 -437t-395 -148t-388 140.5t-135 417.5zM726 1670l189 139q26 18 44 18q23 0 41.5 -18.5t18.5 -42.5q0 -22 -27 -49l-189 -178
q-44 -41 -86 -41q-43 0 -86 41l-184 179q-22 22 -22 44q0 26 19.5 45t45.5 19q20 0 45 -18z" />
    <glyph glyph-name="ucaron" unicode="&#x1d4;" horiz-adv-x="1193" 
d="M164 393v539q0 82 92 82q91 0 91 -82v-512q0 -287 228 -287q49 0 93.5 17.5t74 43t51.5 51t32 43.5l10 17v627q0 82 92 82q91 0 91 -82v-864q0 -37 -19.5 -57t-56.5 -20q-70 0 -82 81l-9 69h-3q-4 -6 -11.5 -17t-36 -38.5t-62 -48.5t-89 -38t-117.5 -17
q-172 0 -270.5 106t-98.5 305zM595 1327l180 157q24 20 43 20q24 0 42.5 -18.5t18.5 -42.5q0 -18 -22 -43l-190 -206q-39 -42 -80 -42q-42 0 -80 41l-182 203q-23 26 -23 44q0 25 20 44t46 19q23 0 47 -21z" />
    <glyph glyph-name="AEmacron" unicode="&#x1e2;" horiz-adv-x="1741" 
d="M363 366l-169 -287q-28 -49 -44 -65q-23 -23 -58 -23t-63.5 24t-28.5 62q0 18 7 34t30 54l682 1135q27 45 55 61.5t77 16.5h726q33 0 52 -20t19 -56q0 -38 -18.5 -58.5t-52.5 -20.5h-525v-438h453q33 0 51.5 -20t18.5 -57t-18.5 -57t-51.5 -20h-453v-476h529q33 0 52 -20
t19 -58q0 -37 -19 -57t-52 -20h-627q-43 0 -66.5 23.5t-23.5 66.5v276h-501zM449 517h415v706h-3zM680 1717h508q66 0 66 -69q0 -70 -66 -70h-508q-65 0 -65 70q0 69 65 69z" />
    <glyph glyph-name="aemacron" unicode="&#x1e3;" horiz-adv-x="1687" 
d="M753 261q-23 51 -33 128q-77 23 -182 23q-248 0 -248 -135q0 -66 51 -109t142 -43q47 0 92 14t76 34t55 40t36 34zM722 519v123q0 124 -54.5 178.5t-179.5 54.5q-69 0 -126.5 -15t-92.5 -30t-51 -15q-28 0 -45 17.5t-17 47.5t22 53q33 32 132 62t217 30q246 0 321 -161
q52 73 139 117.5t201 44.5q177 0 285.5 -115.5t108.5 -313.5q0 -113 -105 -113h-578v-7q4 -161 93.5 -253t235.5 -92q67 0 120 13t85 25.5t48 12.5q27 0 43 -17t16 -42q0 -32 -26 -58q-31 -31 -116 -58t-200 -27q-129 0 -225.5 45t-156.5 124l-8 -8q-7 -8 -17 -17l-25 -22.5
t-33.5 -26.5t-41.5 -27t-50.5 -25.5t-57.5 -21t-66 -15t-73 -5.5q-159 0 -250 80t-91 207q0 132 109.5 202.5t305.5 70.5q56 0 107 -6t74 -12zM907 615h503q-28 270 -244 270q-95 0 -165.5 -68.5t-93.5 -201.5zM580 1387h500q65 0 65 -69t-65 -69h-500q-65 0 -65 69t65 69z
" />
    <glyph glyph-name="Gcaron" unicode="&#x1e6;" horiz-adv-x="1375" 
d="M1040 571h-241q-33 0 -51 20t-18 57q0 35 18.5 55t50.5 20h339q40 0 62.5 -22.5t22.5 -62.5v-447q0 -76 -49 -115q-50 -38 -153 -66.5t-247 -28.5q-310 0 -489 179t-179 498q0 342 194 539.5t520 197.5q137 0 232.5 -34t132.5 -70q29 -30 29 -68q0 -31 -20 -50.5
t-52 -19.5q-17 0 -46 13.5t-60.5 29.5t-96 29.5t-144.5 13.5q-225 0 -360.5 -148t-135.5 -410q0 -263 136 -404t369 -141q72 0 131 10.5t82 21.5l23 10v393zM737 1670l189 139q26 18 44 18q24 0 42 -18.5t18 -42.5q0 -22 -27 -49l-189 -178q-44 -41 -86 -41q-43 0 -86 41
l-184 179q-22 22 -22 44q0 26 19.5 45t45.5 19q20 0 45 -18z" />
    <glyph glyph-name="gcaron" unicode="&#x1e7;" horiz-adv-x="1052" 
d="M940 1023l-104 -100q103 -94 103 -232q0 -162 -110 -261t-307 -99q-80 0 -143 23q-6 -5 -15 -14t-24 -36t-15 -52q0 -51 45.5 -79t155.5 -28h117q186 0 279.5 -71t93.5 -202q0 -156 -134.5 -260t-377.5 -104q-216 0 -327 85.5t-111 215.5q0 52 16.5 98.5t39.5 76t46 51.5
t40 32l16 10q-67 58 -67 151q0 31 10.5 61.5t25 52t29 38.5t24.5 26l11 8q-61 45 -94 110.5t-33 140.5q0 161 110.5 260.5t306.5 99.5q88 0 170 -31l119 139q23 27 38.5 37t36.5 10q31 0 55.5 -22.5t24.5 -55.5q0 -19 -11.5 -35.5t-39.5 -43.5zM609 -1h-112q-83 0 -149 19
q-4 -3 -10.5 -8t-24 -23t-30.5 -38t-23.5 -51.5t-10.5 -64.5q0 -82 68.5 -132.5t203.5 -50.5q150 0 231.5 57t81.5 141q0 74 -52.5 112.5t-172.5 38.5zM311 680q0 -93 60.5 -150t164.5 -57q105 0 164 55t59 148q0 94 -60.5 150.5t-166.5 56.5q-104 0 -162.5 -55t-58.5 -148z
M541 1327l180 157q24 20 43 20q24 0 42.5 -18.5t18.5 -42.5q0 -18 -22 -43l-190 -206q-39 -42 -80 -42q-42 0 -80 41l-182 203q-23 26 -23 44q0 25 20 44t46 19q23 0 47 -21z" />
    <glyph glyph-name="Kcaron" unicode="&#x1e8;" horiz-adv-x="1153" 
d="M381 739l531 588q14 16 30 32q28 28 61 28q39 0 69 -26.5t30 -62.5q0 -33 -25 -58l-496 -519l493 -561q37 -43 37 -73q0 -38 -32.5 -67t-71.5 -29q-35 0 -59 24q-7 7 -28 31l-539 623v-592q0 -83 -94 -83t-94 83v1224q0 83 94 83t94 -83v-562zM608 1670l189 139
q26 18 44 18q23 0 41.5 -18.5t18.5 -42.5q0 -22 -27 -49l-189 -178q-44 -41 -86 -41q-43 0 -86 41l-184 179q-22 22 -22 44q0 26 19.5 45t45.5 19q20 0 45 -18z" />
    <glyph glyph-name="kcaron" unicode="&#x1e9;" horiz-adv-x="1006" 
d="M357 581l392 377q29 27 40 36q28 23 57 23q36 0 63 -26t27 -58q0 -33 -37 -67l-339 -307l360 -409q30 -34 30 -65q0 -39 -31 -66.5t-69 -27.5q-32 0 -56 24q-11 11 -31 34l-406 483v-456q0 -82 -92 -82q-91 0 -91 82v1325q0 82 91 82q45 0 68.5 -21.5t23.5 -60.5v-820z
M270 1731l189 139q26 18 44 18q23 0 41.5 -18t18.5 -43q0 -22 -27 -49l-189 -178q-44 -41 -86 -41q-43 0 -86 41l-184 179q-22 22 -22 44q0 26 19.5 45t45.5 19q20 0 45 -18z" />
    <glyph glyph-name="Gacute" unicode="&#x1f4;" horiz-adv-x="1375" 
d="M1040 571h-241q-33 0 -51 20t-18 57q0 35 18.5 55t50.5 20h339q40 0 62.5 -22.5t22.5 -62.5v-447q0 -76 -49 -115q-50 -38 -153 -66.5t-247 -28.5q-310 0 -489 179t-179 498q0 342 194 539.5t520 197.5q137 0 232.5 -34t132.5 -70q29 -30 29 -68q0 -31 -20 -50.5
t-52 -19.5q-17 0 -46 13.5t-60.5 29.5t-96 29.5t-144.5 13.5q-225 0 -360.5 -148t-135.5 -410q0 -263 136 -404t369 -141q72 0 131 10.5t82 21.5l23 10v393zM656 1608l222 203q25 23 50 23q37 0 66.5 -34t29.5 -71q0 -31 -40 -58l-247 -165q-23 -15 -43 -15q-28 0 -47.5 21
t-19.5 47q0 24 29 49z" />
    <glyph glyph-name="gacute" unicode="&#x1f5;" horiz-adv-x="1052" 
d="M940 1023l-104 -100q103 -94 103 -232q0 -162 -110 -261t-307 -99q-80 0 -143 23q-6 -5 -15 -14t-24 -36t-15 -52q0 -51 45.5 -79t155.5 -28h117q186 0 279.5 -71t93.5 -202q0 -156 -134.5 -260t-377.5 -104q-216 0 -327 85.5t-111 215.5q0 52 16.5 98.5t39.5 76t46 51.5
t40 32l16 10q-67 58 -67 151q0 31 10.5 61.5t25 52t29 38.5t24.5 26l11 8q-61 45 -94 110.5t-33 140.5q0 161 110.5 260.5t306.5 99.5q88 0 170 -31l119 139q23 27 38.5 37t36.5 10q31 0 55.5 -22.5t24.5 -55.5q0 -19 -11.5 -35.5t-39.5 -43.5zM609 -1h-112q-83 0 -149 19
q-4 -3 -10.5 -8t-24 -23t-30.5 -38t-23.5 -51.5t-10.5 -64.5q0 -82 68.5 -132.5t203.5 -50.5q150 0 231.5 57t81.5 141q0 74 -52.5 112.5t-172.5 38.5zM311 680q0 -93 60.5 -150t164.5 -57q105 0 164 55t59 148q0 94 -60.5 150.5t-166.5 56.5q-104 0 -162.5 -55t-58.5 -148z
M486 1255l168 235q25 35 57 35q36 0 69.5 -29t33.5 -67q0 -24 -30 -52l-199 -204q-25 -26 -50 -26q-28 0 -48 19.5t-20 45.5q0 18 19 43z" />
    <glyph glyph-name="Aringacute" unicode="&#x1fa;" horiz-adv-x="1243" 
d="M341 366l-93 -278q-19 -59 -37 -77q-20 -20 -58 -20t-68 22t-30 59q0 21 17 67l403 1129q20 56 47 82q34 34 99 34t99 -34q28 -28 47 -82l405 -1127q17 -46 17 -65q0 -39 -32.5 -62t-71.5 -23q-37 0 -59 22q-17 16 -36 72l-97 281h-552zM389 517h454l-165 474l-64 200h-4
q-26 -92 -62 -200zM369 1639q0 94 69.5 152.5t179.5 58.5q109 0 175 -55t66 -147q0 -94 -69.5 -152.5t-179.5 -58.5q-109 0 -175 55.5t-66 146.5zM487 1644q0 -54 33 -85.5t94 -31.5t94 31.5t33 85.5t-33 85.5t-94 31.5t-94 -31.5t-33 -85.5zM466 1973l286 71q22 4 31 4
q26 0 41.5 -17.5t15.5 -48.5q0 -51 -59 -59l-281 -35q-24 -3 -31 -3q-20 0 -31.5 11.5t-11.5 32.5q0 35 40 44z" />
    <glyph glyph-name="aringacute" unicode="&#x1fb;" horiz-adv-x="1074" 
d="M726 262v126q-78 24 -188 24q-248 0 -248 -135q0 -66 50 -109t139 -43q44 0 85.5 14t69.5 34t50 40.5t32 34.5zM726 519v123q0 125 -54.5 179t-183.5 54q-69 0 -126.5 -15t-92.5 -30t-51 -15q-28 0 -45 17.5t-17 47.5t22 53q33 32 132 62t217 30q190 0 286 -88.5
t96 -257.5v-370q0 -105 12 -174t12 -73q0 -31 -21.5 -51t-57.5 -20q-84 0 -109 130h-3q-4 -6 -12.5 -15t-37 -33t-61 -42.5t-84.5 -33.5t-108 -15q-156 0 -246 80.5t-90 206.5q0 132 109.5 202.5t305.5 70.5q58 0 110 -6t75 -12zM287 1344q0 98 71 164t179 66t175 -62
t67 -159q0 -98 -70.5 -164.5t-179.5 -66.5t-175.5 62t-66.5 160zM406 1348q0 -59 34 -93.5t93 -34.5q58 0 92.5 34.5t34.5 94.5q0 58 -34.5 92.5t-92.5 34.5t-92.5 -34.5t-34.5 -93.5zM378 1732l260 117q25 12 40 12q29 0 49.5 -24.5t19.5 -58.5q0 -24 -12 -37.5t-42 -23.5
l-274 -84q-23 -7 -38 -7q-20 0 -33 17t-13 39q0 31 43 50z" />
    <glyph glyph-name="AEacute" unicode="&#x1fc;" horiz-adv-x="1741" 
d="M363 366l-169 -287q-28 -49 -44 -65q-23 -23 -58 -23t-63.5 24t-28.5 62q0 18 7 34t30 54l682 1135q27 45 55 61.5t77 16.5h726q33 0 52 -20t19 -56q0 -38 -18.5 -58.5t-52.5 -20.5h-525v-438h453q33 0 51.5 -20t18.5 -57t-18.5 -57t-51.5 -20h-453v-476h529q33 0 52 -20
t19 -58q0 -37 -19 -57t-52 -20h-627q-43 0 -66.5 23.5t-23.5 66.5v276h-501zM449 517h415v706h-3zM826 1608l222 203q25 23 50 23q37 0 66.5 -34t29.5 -71q0 -31 -40 -58l-247 -165q-23 -15 -43 -15q-28 0 -47.5 21t-19.5 47q0 24 29 49z" />
    <glyph glyph-name="aeacute" unicode="&#x1fd;" horiz-adv-x="1687" 
d="M753 261q-23 51 -33 128q-77 23 -182 23q-248 0 -248 -135q0 -66 51 -109t142 -43q47 0 92 14t76 34t55 40t36 34zM722 519v123q0 124 -54.5 178.5t-179.5 54.5q-69 0 -126.5 -15t-92.5 -30t-51 -15q-28 0 -45 17.5t-17 47.5t22 53q33 32 132 62t217 30q246 0 321 -161
q52 73 139 117.5t201 44.5q177 0 285.5 -115.5t108.5 -313.5q0 -113 -105 -113h-578v-7q4 -161 93.5 -253t235.5 -92q67 0 120 13t85 25.5t48 12.5q27 0 43 -17t16 -42q0 -32 -26 -58q-31 -31 -116 -58t-200 -27q-129 0 -225.5 45t-156.5 124l-8 -8q-7 -8 -17 -17l-25 -22.5
t-33.5 -26.5t-41.5 -27t-50.5 -25.5t-57.5 -21t-66 -15t-73 -5.5q-159 0 -250 80t-91 207q0 132 109.5 202.5t305.5 70.5q56 0 107 -6t74 -12zM907 615h503q-28 270 -244 270q-95 0 -165.5 -68.5t-93.5 -201.5zM782 1255l168 235q25 35 57 35q36 0 69.5 -29t33.5 -67
q0 -24 -30 -52l-199 -204q-25 -26 -50 -26q-28 0 -48 19.5t-20 45.5q0 18 19 43z" />
    <glyph glyph-name="Oslashacute" unicode="&#x1fe;" horiz-adv-x="1514" 
d="M482 32l-88 -158q-25 -45 -36 -56q-17 -17 -44 -17q-32 0 -59 22.5t-27 53.5q0 18 29 69l88 160q-239 190 -239 565q0 338 181.5 532.5t481.5 194.5q145 0 264 -50l87 156q25 45 36 56q15 17 44 17q32 0 59 -22.5t27 -53.5q0 -17 -29 -69l-88 -160q115 -88 176.5 -232.5
t61.5 -331.5q0 -338 -181.5 -532.5t-480.5 -194.5q-150 0 -263 51zM439 271l514 928q-86 45 -198 45q-204 0 -332 -146.5t-128 -406.5q0 -270 144 -420zM1075 1109l-514 -929q86 -45 198 -45q204 0 332 146t128 406q0 270 -144 422zM707 1608l222 203q25 23 50 23
q37 0 66.5 -34t29.5 -71q0 -31 -40 -58l-247 -165q-23 -15 -43 -15q-28 0 -47.5 21t-19.5 47q0 24 29 49z" />
    <glyph glyph-name="oslashacute" unicode="&#x1ff;" horiz-adv-x="1180" 
d="M532 1255l168 235q25 35 57 35q36 0 69.5 -29t33.5 -67q0 -24 -30 -52l-199 -204q-25 -26 -50 -26q-28 0 -48 19.5t-20 45.5q0 18 19 43zM168 -54l89 149q-158 142 -158 391q0 252 136.5 396t366.5 144q108 0 192 -38l89 150q25 43 64 43q32 0 57 -21.5t25 -51.5
q0 -17 -15 -44l-92 -152q159 -142 159 -390q0 -253 -137 -397t-367 -144q-98 0 -191 37l-87 -145q-26 -44 -65 -44q-31 0 -56 22t-25 51q0 17 15 44zM827 760l-362 -604q56 -30 127 -30q139 0 224 98t85 278q0 156 -74 258zM353 247l362 605q-55 30 -127 30
q-138 0 -223.5 -98t-85.5 -278q0 -158 74 -259z" />
    <glyph glyph-name="Scommaaccent" unicode="&#x218;" horiz-adv-x="1095" 
d="M132 1013q0 171 122.5 277.5t344.5 106.5q108 0 187 -25t110 -56q29 -29 29 -66q0 -31 -20 -50t-52 -19q-21 0 -54 15.5t-87.5 30.5t-128.5 15q-128 0 -195 -56.5t-67 -150.5q0 -51 22.5 -90.5t60.5 -65t87 -46.5t103.5 -40t109 -40t103.5 -52t87 -70.5t60.5 -101
t22.5 -138.5q0 -185 -128 -297t-365 -112q-124 0 -210.5 26.5t-119.5 59.5q-29 29 -29 67q0 31 19.5 50.5t51.5 19.5q17 0 42.5 -10.5t52 -23.5t82.5 -23.5t127 -10.5q139 0 213.5 63.5t74.5 168.5q0 55 -22.5 97.5t-60.5 70.5t-87 50.5t-103.5 42t-109 40t-103.5 50t-87 67
t-60.5 95.5t-22.5 131zM418 -232q0 49 32.5 81t80.5 32q49 0 79 -31.5t30 -83.5q0 -53 -33.5 -102.5t-82 -82.5t-101 -53t-92.5 -20q-32 0 -49.5 13.5t-17.5 36.5q0 21 14 35q12 12 41.5 25.5t63.5 34t60 50.5q-25 28 -25 65z" />
    <glyph glyph-name="scommaaccent" unicode="&#x219;" horiz-adv-x="911" 
d="M116 733q0 127 101 210t282 83q94 0 155.5 -19.5t86.5 -44.5t25 -62q0 -27 -18.5 -45t-46.5 -18q-13 0 -81 22.5t-137 22.5q-93 0 -140 -35.5t-47 -92.5q0 -43 28.5 -74t74.5 -50.5t101.5 -37t111 -40t101.5 -53t74.5 -83t28.5 -123.5q0 -135 -107 -223t-299 -88
q-111 0 -179.5 21t-95.5 48q-25 25 -25 62q0 30 18 48.5t47 18.5q15 0 46.5 -13.5t84 -27t119.5 -13.5q105 0 157.5 40t52.5 106q0 45 -28.5 77.5t-74.5 52t-101 37.5t-110.5 40.5t-101.5 52t-74.5 81t-28.5 120.5zM343 -232q0 49 32.5 81t80.5 32q49 0 79 -31.5t30 -83.5
q0 -53 -33.5 -102.5t-82 -82.5t-101 -53t-92.5 -20q-32 0 -49.5 13.5t-17.5 36.5q0 21 14 35q12 12 41.5 25.5t63.5 34t60 50.5q-25 28 -25 65z" />
    <glyph glyph-name="Tcommaaccent" unicode="&#x21a;" horiz-adv-x="1115" 
d="M464 1221h-366q-34 0 -52.5 20.5t-18.5 58.5t19 58t52 20h919q33 0 52 -20t19 -58t-18.5 -58.5t-52.5 -20.5h-366v-1144q0 -83 -93 -83q-94 0 -94 83v1144zM445 -232q0 49 32.5 81t80.5 32q49 0 79 -31.5t30 -83.5q0 -53 -33.5 -102.5t-82 -82.5t-101 -53t-92.5 -20
q-32 0 -49.5 13.5t-17.5 36.5q0 21 14 35q12 12 41.5 25.5t63.5 34t60 50.5q-25 28 -25 65z" />
    <glyph glyph-name="tcommaaccent" unicode="&#x21b;" horiz-adv-x="703" 
d="M209 863h-111q-30 0 -48 19t-18 53t18 53.5t48 19.5h113l25 189q12 85 84 85q34 0 53 -19.5t19 -55.5v-199h210q30 0 48 -19.5t18 -53.5t-18 -53t-48 -19h-210v-576q0 -79 28 -113.5t89 -34.5q35 0 68.5 9t42.5 9q25 0 40.5 -16t15.5 -42q0 -32 -25 -57q-52 -52 -183 -52
q-259 0 -259 251v622zM302 -232q0 49 32.5 81t80.5 32q49 0 79 -31.5t30 -83.5q0 -53 -33.5 -102.5t-82 -82.5t-101 -53t-92.5 -20q-32 0 -49.5 13.5t-17.5 36.5q0 21 14 35q12 12 41.5 25.5t63.5 34t60 50.5q-25 28 -25 65z" />
    <glyph glyph-name="Adotaccent" unicode="&#x226;" horiz-adv-x="1243" 
d="M341 366l-93 -278q-19 -59 -37 -77q-20 -20 -58 -20t-68 22t-30 59q0 21 17 67l403 1129q20 56 47 82q34 34 99 34t99 -34q28 -28 47 -82l405 -1127q17 -46 17 -65q0 -39 -32.5 -62t-71.5 -23q-37 0 -59 22q-17 16 -36 72l-97 281h-552zM389 517h454l-165 474l-64 200h-4
q-26 -92 -62 -200zM496 1651q0 51 34.5 85.5t86.5 34.5t84.5 -32.5t32.5 -83.5q0 -52 -34 -86.5t-85 -34.5q-52 0 -85.5 32.5t-33.5 84.5z" />
    <glyph glyph-name="adotaccent" unicode="&#x227;" horiz-adv-x="1074" 
d="M726 262v126q-78 24 -188 24q-248 0 -248 -135q0 -66 50 -109t139 -43q44 0 85.5 14t69.5 34t50 40.5t32 34.5zM726 519v123q0 125 -54.5 179t-183.5 54q-69 0 -126.5 -15t-92.5 -30t-51 -15q-28 0 -45 17.5t-17 47.5t22 53q33 32 132 62t217 30q190 0 286 -88.5
t96 -257.5v-370q0 -105 12 -174t12 -73q0 -31 -21.5 -51t-57.5 -20q-84 0 -109 130h-3q-4 -6 -12.5 -15t-37 -33t-61 -42.5t-84.5 -33.5t-108 -15q-156 0 -246 80.5t-90 206.5q0 132 109.5 202.5t305.5 70.5q58 0 110 -6t75 -12zM412 1320q0 50 34.5 84.5t85.5 34.5
t83.5 -32.5t32.5 -82.5q0 -51 -33.5 -86t-84.5 -35q-52 0 -85 32.5t-33 84.5z" />
    <glyph glyph-name="dotlessj" unicode="&#x237;" horiz-adv-x="531" 
d="M174 6v926q0 82 92 82q91 0 91 -82v-945q0 -250 -128 -378q-43 -43 -92.5 -65.5t-92.5 -22.5q-38 0 -59.5 18.5t-21.5 50.5q0 39 37 62q48 29 76.5 53.5t53 64t34.5 96.5t10 140z" />
    <glyph glyph-name="apostrophe" unicode="&#x2bc;" 
d="M422 1453q0 46 32.5 77t82.5 31t80 -32.5t30 -88.5q0 -69 -36.5 -140t-91.5 -126q-51 -50 -91 -50q-22 0 -35.5 11.5t-13.5 32.5q0 19 17 40.5t43 60t42 91.5q-24 10 -41.5 34.5t-17.5 58.5z" />
    <glyph glyph-name="circumflex" unicode="&#x2c6;" 
d="M507 1330l-179 -158q-23 -19 -43 -19q-24 0 -43 18.5t-19 42.5q0 19 23 42l189 206q39 42 81 42q44 0 80 -41l181 -202q23 -25 23 -44q0 -26 -20 -45t-46 -19q-20 0 -47 21z" />
    <glyph glyph-name="caron" unicode="&#x2c7;" 
d="M517 1327l180 157q24 20 43 20q24 0 42.5 -18.5t18.5 -42.5q0 -18 -22 -43l-190 -206q-39 -42 -80 -42q-42 0 -80 41l-182 203q-23 26 -23 44q0 25 20 44t46 19q23 0 47 -21z" />
    <glyph glyph-name="breve" unicode="&#x2d8;" 
d="M235 1409q0 31 18.5 48.5t48.5 17.5q54 0 61 -54q20 -139 151 -139q68 0 104.5 37.5t43.5 101.5q3 26 19.5 40t41.5 14q30 0 48.5 -17.5t18.5 -48.5q0 -113 -77.5 -188.5t-204.5 -75.5q-117 0 -195 71t-78 193z" />
    <glyph glyph-name="dotaccent" unicode="&#x2d9;" 
d="M394 1320q0 50 34.5 84.5t85.5 34.5t83.5 -32.5t32.5 -82.5q0 -51 -33.5 -86t-84.5 -35q-52 0 -85 32.5t-33 84.5z" />
    <glyph glyph-name="ring" unicode="&#x2da;" 
d="M266 1344q0 98 71 164t179 66t175 -62t67 -159q0 -98 -70.5 -164.5t-179.5 -66.5t-175.5 62t-66.5 160zM385 1348q0 -59 34.5 -93.5t92.5 -34.5t92.5 34.5t34.5 94.5q0 58 -34.5 92.5t-92.5 34.5t-92.5 -34.5t-34.5 -93.5z" />
    <glyph glyph-name="ogonek" unicode="&#x2db;" 
d="M542 0h138q-86 -82 -129 -146.5t-43 -125.5q0 -85 81 -85q26 0 54 8.5t41 8.5q22 0 35.5 -14.5t13.5 -36.5q0 -29 -23 -51q-21 -21 -64.5 -35.5t-98.5 -14.5q-98 0 -153 50t-55 134q0 82 59.5 164.5t143.5 143.5z" />
    <glyph glyph-name="tilde" unicode="&#x2dc;" 
d="M369 1298q-29 0 -51.5 -13.5t-34 -29t-29 -29t-38.5 -13.5q-24 0 -40.5 15.5t-16.5 41.5q0 58 64.5 115.5t155.5 57.5q45 0 87.5 -16.5t69 -36.5t57.5 -36.5t56 -16.5q29 0 51.5 13.5t34 29.5t29.5 29.5t39 13.5q23 0 39.5 -15.5t16.5 -41.5q0 -58 -64.5 -115.5
t-155.5 -57.5q-45 0 -87.5 16.5t-69 36t-57.5 36t-56 16.5z" />
    <glyph glyph-name="hungarumlaut" unicode="&#x2dd;" 
d="M183 1251l153 234q14 21 27.5 30.5t34.5 9.5q37 0 68 -27.5t31 -60.5q0 -23 -25 -49l-184 -205q-30 -33 -55 -33q-26 0 -46.5 17.5t-20.5 40.5q0 16 17 43zM525 1249l179 231q26 33 57 33q38 0 69.5 -30t31.5 -64q0 -26 -31 -54l-212 -198q-23 -20 -43 -20
q-25 0 -46 18.5t-21 44.5q0 16 16 39z" />
    <glyph glyph-name="uni0312" unicode="&#x312;" 
d="M358 1259q0 70 56.5 132t127.5 94t126 32q31 0 49 -13.5t18 -36.5q0 -21 -15 -36q-10 -10 -70 -40t-95 -70q25 -25 25 -64q0 -49 -32.5 -81.5t-80.5 -32.5q-49 0 -79 32t-30 84z" />
    <glyph glyph-name="uni0315" unicode="&#x315;" 
d="M413 1240l70 254q9 34 26.5 49t48.5 15q39 0 69.5 -21.5t30.5 -51.5q0 -14 -13 -43l-116 -255q-17 -39 -57 -39q-26 0 -46.5 15t-20.5 39q0 14 8 38z" />
    <glyph glyph-name="uni0326" unicode="&#x326;" 
d="M446 -232q0 49 32.5 81t80.5 32q49 0 79 -31.5t30 -83.5q0 -53 -33.5 -102.5t-82 -82.5t-101 -53t-92.5 -20q-32 0 -49.5 13.5t-17.5 36.5q0 21 14 35q12 12 41.5 25.5t63.5 34t60 50.5q-25 28 -25 65z" />
    <glyph glyph-name="Delta" unicode="&#x394;" horiz-adv-x="1247" 
d="M81 160l399 1115q21 60 54.5 84.5t89.5 24.5q55 0 88.5 -24.5t55.5 -84.5l399 -1115q14 -42 14 -72q0 -41 -23 -64.5t-64 -23.5h-940q-42 0 -65.5 23.5t-23.5 64.5q0 28 16 72zM267 155h706l-291 836l-66 204h-4q-29 -97 -64 -204z" />
    <glyph glyph-name="Delta" unicode="&#x2206;" horiz-adv-x="1247" 
d="M81 160l399 1115q21 60 54.5 84.5t89.5 24.5q55 0 88.5 -24.5t55.5 -84.5l399 -1115q14 -42 14 -72q0 -41 -23 -64.5t-64 -23.5h-940q-42 0 -65.5 23.5t-23.5 64.5q0 28 16 72zM267 155h706l-291 836l-66 204h-4q-29 -97 -64 -204z" />
    <glyph glyph-name="Omega" unicode="&#x3a9;" horiz-adv-x="1576" 
d="M205 156h274v3q-326 229 -326 596q0 287 179 465t470 178q281 0 451.5 -167.5t170.5 -438.5q0 -206 -90 -359.5t-252 -273.5v-3h289q31 0 50 -20.5t19 -56.5q0 -37 -19 -58t-50 -21h-382q-37 0 -55 18q-20 20 -20 88v10q0 48 8 70t35 46q138 114 208 239t70 300
q0 210 -126 341t-321 131q-197 0 -321.5 -129t-124.5 -339q0 -178 69.5 -303t207.5 -240q28 -24 35.5 -45.5t7.5 -70.5v-10q0 -66 -20 -88q-16 -18 -54 -18h-383q-31 0 -49.5 21t-18.5 58q0 36 18.5 56.5t49.5 20.5z" />
    <glyph glyph-name="Omega" unicode="&#x2126;" horiz-adv-x="1576" 
d="M205 156h274v3q-326 229 -326 596q0 287 179 465t470 178q281 0 451.5 -167.5t170.5 -438.5q0 -206 -90 -359.5t-252 -273.5v-3h289q31 0 50 -20.5t19 -56.5q0 -37 -19 -58t-50 -21h-382q-37 0 -55 18q-20 20 -20 88v10q0 48 8 70t35 46q138 114 208 239t70 300
q0 210 -126 341t-321 131q-197 0 -321.5 -129t-124.5 -339q0 -178 69.5 -303t207.5 -240q28 -24 35.5 -45.5t7.5 -70.5v-10q0 -66 -20 -88q-16 -18 -54 -18h-383q-31 0 -49.5 21t-18.5 58q0 36 18.5 56.5t49.5 20.5z" />
    <glyph glyph-name="pi" unicode="&#x3c0;" horiz-adv-x="1260" 
d="M231 863h-119q-30 0 -48 19t-18 53t18 53.5t48 19.5h1036q30 0 48 -19.5t18 -53.5t-18 -53t-48 -19h-138v-325q0 -211 8 -285.5t29 -94.5q19 -19 47 -19q13 0 31.5 2t25.5 2q23 0 38 -16t15 -41q0 -36 -22 -56q-40 -40 -132 -40q-98 0 -151 53q-39 39 -55.5 118.5
t-16.5 280.5v421h-413v-787q0 -82 -92 -82q-91 0 -91 82v787z" />
    <glyph glyph-name="uni1E02" unicode="&#x1e02;" horiz-adv-x="1208" 
d="M379 152h175q180 0 266.5 66.5t86.5 180.5q0 238 -353 238h-175v-485zM379 787h166q158 0 235 60.5t77 164.5q0 214 -305 214h-173v-439zM193 90v1198q0 43 23.5 66.5t66.5 23.5h281q248 0 366 -91.5t118 -252.5q0 -111 -61 -191t-163 -115v-2q130 -23 202.5 -104
t72.5 -207q0 -186 -142 -300.5t-417 -114.5h-257q-43 0 -66.5 23.5t-23.5 66.5zM460 1651q0 51 34.5 85.5t86.5 34.5t84.5 -32.5t32.5 -83.5q0 -52 -34 -86.5t-85 -34.5q-52 0 -85.5 32.5t-33.5 84.5z" />
    <glyph glyph-name="uni1E03" unicode="&#x1e03;" horiz-adv-x="1167" 
d="M174 149v1252q0 82 91 82q45 0 68.5 -21.5t23.5 -60.5v-386q0 -67 -7 -136h3q4 6 12 16t36 35t60.5 44.5t86 35.5t112.5 16q188 0 298.5 -127t110.5 -369q0 -259 -142.5 -404t-393.5 -145q-119 0 -210 28.5t-120 57.5t-29 82zM357 703v-530q7 -5 21.5 -13t66 -21
t110.5 -13q149 0 237.5 100t88.5 286q0 363 -263 363q-49 0 -93.5 -17.5t-74 -43t-51.5 -51t-32 -43.5zM147 1712q0 51 34.5 85.5t86.5 34.5t84.5 -32.5t32.5 -83.5q0 -52 -34 -86.5t-85 -34.5q-52 0 -85.5 32.5t-33.5 84.5z" />
    <glyph glyph-name="uni1E0A" unicode="&#x1e0a;" horiz-adv-x="1394" 
d="M193 90v1198q0 43 23.5 66.5t66.5 23.5h321q335 0 511.5 -171t176.5 -488q0 -337 -190 -528t-524 -191h-295q-43 0 -66.5 23.5t-23.5 66.5zM381 154h210q237 0 373 142.5t136 401.5q0 261 -129.5 393.5t-379.5 132.5h-210v-1070zM531 1651q0 51 34.5 85.5t86.5 34.5
t84.5 -32.5t32.5 -83.5q0 -52 -34 -86.5t-85 -34.5q-52 0 -85.5 32.5t-33.5 84.5z" />
    <glyph glyph-name="uni1E0B" unicode="&#x1e0b;" horiz-adv-x="1169" 
d="M811 1132v269q0 82 91 82q45 0 68.5 -21.5t23.5 -60.5v-1333q0 -37 -20 -57t-57 -20q-69 0 -81 81l-10 69h-3q-4 -6 -12 -17t-36.5 -38.5t-62 -48.5t-88.5 -38t-116 -17q-189 0 -299.5 127t-110.5 368q0 260 142.5 404.5t394.5 144.5q44 0 88 -6t66 -12l22 -6l3 1
q-3 61 -3 129zM811 305v532q-8 5 -23 11.5t-66.5 18t-109.5 11.5q-149 0 -237.5 -99.5t-88.5 -282.5q0 -363 263 -363q49 0 94 17.5t74 43t51.5 51t32.5 43.5zM782 1712q0 51 34.5 85.5t86.5 34.5t84.5 -32.5t32.5 -83.5q0 -52 -34 -86.5t-85 -34.5q-52 0 -85.5 32.5
t-33.5 84.5z" />
    <glyph glyph-name="uni1E1E" unicode="&#x1e1e;" horiz-adv-x="1011" 
d="M381 609v-532q0 -83 -94 -83t-94 83v1211q0 43 23.5 66.5t66.5 23.5h614q33 0 51.5 -20t18.5 -56q0 -38 -18.5 -58.5t-50.5 -20.5h-517v-460h434q32 0 50.5 -20t18.5 -57t-18.5 -57t-50.5 -20h-434zM469 1651q0 51 34.5 85.5t86.5 34.5t84.5 -32.5t32.5 -83.5
q0 -52 -34 -86.5t-85 -34.5q-52 0 -85.5 32.5t-33.5 84.5z" />
    <glyph glyph-name="uni1E1F" unicode="&#x1e1f;" horiz-adv-x="654" 
d="M212 863h-110q-30 0 -48 19t-18 53t18 53.5t48 19.5h110v106q0 180 94 279t258 99q53 0 94 -13t59 -31q23 -23 23 -59q0 -31 -17.5 -49t-43.5 -18q-12 0 -48.5 11.5t-74.5 11.5q-161 0 -161 -215v-122h177q30 0 48 -19.5t18 -53.5t-18 -53t-48 -19h-177v-787
q0 -82 -91 -82q-92 0 -92 82v787zM364 1712q0 51 34.5 85.5t86.5 34.5t84.5 -32.5t32.5 -83.5q0 -52 -34 -86.5t-85 -34.5q-52 0 -85.5 32.5t-33.5 84.5z" />
    <glyph glyph-name="uni1E40" unicode="&#x1e40;" horiz-adv-x="1796" 
d="M138 117l117 1135q7 64 40 97q35 35 106 35q64 0 100 -30t57 -95l287 -870q15 -45 29 -92.5t20 -72.5l7 -25h4q21 88 55 190l287 868q22 67 57 97t98 30q65 0 100 -33q32 -33 38 -99l118 -1136q4 -42 4 -48q0 -34 -28 -55.5t-70 -21.5q-46 0 -69 24q-19 19 -25 88
l-77 856q-4 49 -6 102.5t-2 82.5v28h-4l-350 -1062q-19 -60 -45 -86q-30 -30 -88 -30q-60 0 -90 30q-25 25 -45 86l-351 1062h-4q-2 -101 -11 -211l-78 -858q-6 -68 -26 -88q-23 -24 -66 -24q-40 0 -67 21t-27 55q0 12 5 50zM783 1651q0 51 34.5 85.5t86.5 34.5t84.5 -32.5
t32.5 -83.5q0 -52 -34 -86.5t-85 -34.5q-52 0 -85.5 32.5t-33.5 84.5z" />
    <glyph glyph-name="uni1E41" unicode="&#x1e41;" horiz-adv-x="1842" 
d="M174 76v864q0 36 19.5 56t56.5 20q70 0 82 -80l9 -69h3q4 6 11.5 17t35.5 38.5t60.5 48.5t86.5 38t113 17q230 0 320 -188q5 8 13.5 20.5t40 45t68 57t96 45t123.5 20.5q170 0 268 -106.5t98 -305.5v-538q0 -82 -91 -82q-92 0 -92 82v512q0 146 -59 216.5t-167 70.5
q-47 0 -91 -18.5t-72.5 -45t-51 -53t-32.5 -44.5l-10 -19q0 -1 1 -14.5t2.5 -36t1.5 -43.5v-525q0 -82 -91 -82q-92 0 -92 82v512q0 146 -59 216.5t-167 70.5q-46 0 -88.5 -17.5t-71 -43t-50 -51t-31.5 -43.5l-10 -17v-627q0 -82 -92 -82q-91 0 -91 82zM812 1320
q0 50 34.5 84.5t85.5 34.5t83.5 -32.5t32.5 -82.5q0 -51 -33.5 -86t-84.5 -35q-52 0 -85 32.5t-33 84.5z" />
    <glyph glyph-name="uni1E56" unicode="&#x1e56;" horiz-adv-x="1114" 
d="M380 540v-463q0 -83 -94 -83q-93 0 -93 83v1211q0 43 23.5 66.5t66.5 23.5h274q243 0 365.5 -105t122.5 -293q0 -200 -134 -320t-378 -120h-153zM380 692h167q148 0 226.5 72t78.5 199q0 262 -307 262h-165v-533zM449 1651q0 51 34.5 85.5t86.5 34.5t84.5 -32.5
t32.5 -83.5q0 -52 -34 -86.5t-85 -34.5q-52 0 -85.5 32.5t-33.5 84.5z" />
    <glyph glyph-name="uni1E57" unicode="&#x1e57;" horiz-adv-x="1167" 
d="M174 -397v1337q0 36 19.5 56t56.5 20q70 0 82 -80l9 -69h3q4 6 12 17t36.5 38.5t62 48.5t89 38t116.5 17q188 0 298.5 -127t110.5 -369q0 -259 -142.5 -404t-393.5 -145q-44 0 -88 6t-66 12l-22 6l-3 -1q3 -60 3 -128v-273q0 -39 -23.5 -60.5t-68.5 -21.5q-91 0 -91 82z
M357 703v-536q8 -5 22.5 -11.5t66 -18t109.5 -11.5q149 0 237.5 100t88.5 286q0 363 -263 363q-49 0 -93.5 -17.5t-74 -43t-51.5 -51t-32 -43.5zM479 1320q0 50 34.5 84.5t85.5 34.5t83.5 -32.5t32.5 -82.5q0 -51 -33.5 -86t-84.5 -35q-52 0 -85 32.5t-33 84.5z" />
    <glyph glyph-name="uni1E60" unicode="&#x1e60;" horiz-adv-x="1095" 
d="M132 1013q0 171 122.5 277.5t344.5 106.5q108 0 187 -25t110 -56q29 -29 29 -66q0 -31 -20 -50t-52 -19q-21 0 -54 15.5t-87.5 30.5t-128.5 15q-128 0 -195 -56.5t-67 -150.5q0 -51 22.5 -90.5t60.5 -65t87 -46.5t103.5 -40t109 -40t103.5 -52t87 -70.5t60.5 -101
t22.5 -138.5q0 -185 -128 -297t-365 -112q-124 0 -210.5 26.5t-119.5 59.5q-29 29 -29 67q0 31 19.5 50.5t51.5 19.5q17 0 42.5 -10.5t52 -23.5t82.5 -23.5t127 -10.5q139 0 213.5 63.5t74.5 168.5q0 55 -22.5 97.5t-60.5 70.5t-87 50.5t-103.5 42t-109 40t-103.5 50t-87 67
t-60.5 95.5t-22.5 131zM416 1651q0 51 34.5 85.5t86.5 34.5t84.5 -32.5t32.5 -83.5q0 -52 -34 -86.5t-85 -34.5q-52 0 -85.5 32.5t-33.5 84.5z" />
    <glyph glyph-name="uni1E61" unicode="&#x1e61;" horiz-adv-x="911" 
d="M116 733q0 127 101 210t282 83q94 0 155.5 -19.5t86.5 -44.5t25 -62q0 -27 -18.5 -45t-46.5 -18q-13 0 -81 22.5t-137 22.5q-93 0 -140 -35.5t-47 -92.5q0 -43 28.5 -74t74.5 -50.5t101.5 -37t111 -40t101.5 -53t74.5 -83t28.5 -123.5q0 -135 -107 -223t-299 -88
q-111 0 -179.5 21t-95.5 48q-25 25 -25 62q0 30 18 48.5t47 18.5q15 0 46.5 -13.5t84 -27t119.5 -13.5q105 0 157.5 40t52.5 106q0 45 -28.5 77.5t-74.5 52t-101 37.5t-110.5 40.5t-101.5 52t-74.5 81t-28.5 120.5zM338 1320q0 50 34.5 84.5t85.5 34.5t83.5 -32.5
t32.5 -82.5q0 -51 -33.5 -86t-84.5 -35q-52 0 -85 32.5t-33 84.5z" />
    <glyph glyph-name="uni1E6A" unicode="&#x1e6a;" horiz-adv-x="1115" 
d="M464 1221h-366q-34 0 -52.5 20.5t-18.5 58.5t19 58t52 20h919q33 0 52 -20t19 -58t-18.5 -58.5t-52.5 -20.5h-366v-1144q0 -83 -93 -83q-94 0 -94 83v1144zM438 1651q0 51 34.5 85.5t86.5 34.5t84.5 -32.5t32.5 -83.5q0 -52 -34 -86.5t-85 -34.5q-52 0 -85.5 32.5
t-33.5 84.5z" />
    <glyph glyph-name="uni1E6B" unicode="&#x1e6b;" horiz-adv-x="703" 
d="M209 863h-111q-30 0 -48 19t-18 53t18 53.5t48 19.5h113l25 189q12 85 84 85q34 0 53 -19.5t19 -55.5v-199h210q30 0 48 -19.5t18 -53.5t-18 -53t-48 -19h-210v-576q0 -79 28 -113.5t89 -34.5q35 0 68.5 9t42.5 9q25 0 40.5 -16t15.5 -42q0 -32 -25 -57q-52 -52 -183 -52
q-259 0 -259 251v622zM208 1542q0 51 34.5 85.5t86.5 34.5t84.5 -32.5t32.5 -83.5q0 -52 -34 -86.5t-85 -34.5q-52 0 -85.5 32.5t-33.5 84.5z" />
    <glyph glyph-name="Wgrave" unicode="&#x1e80;" horiz-adv-x="1903" 
d="M388 115l-301 1126q-12 46 -12 61q0 39 31.5 62t71.5 23q38 0 60 -22q15 -15 31 -76l230 -897q12 -49 22.5 -99.5t14.5 -76.5l4 -26h4q15 88 45 202l231 882q16 63 49 88t88 25q56 0 88.5 -25t48.5 -88l230 -878q12 -48 23.5 -99.5t16.5 -78.5l5 -28h4q18 100 44 204
l221 894q15 62 30 77q22 22 62 22q38 0 68 -21.5t30 -57.5q0 -12 -13 -60l-302 -1133q-16 -59 -41 -86q-35 -35 -105 -35q-66 0 -101 35q-25 25 -41 85l-228 867q-12 44 -23 93.5t-16 77.5l-6 28h-4q-18 -100 -44 -199l-227 -867q-16 -60 -41 -85q-35 -35 -101 -35
q-70 0 -105 35q-26 26 -42 86zM967 1506l-248 165q-39 26 -39 58q0 37 29 71t66 34q25 0 50 -23l223 -203q28 -24 28 -49q0 -26 -19.5 -47t-47.5 -21q-19 0 -42 15z" />
    <glyph glyph-name="wgrave" unicode="&#x1e81;" horiz-adv-x="1605" 
d="M325 114l-236 759q-14 44 -14 63q0 37 32 59t69 22t58 -21q13 -13 31 -75l172 -591q11 -38 20 -75.5t13 -55.5l3 -18h4q12 64 37 149l168 565q20 69 48 95.5t80 26.5q53 0 81 -26.5t48 -94.5l168 -566q11 -37 20.5 -74.5t12.5 -55.5l4 -19h4q13 65 36 149l165 592
q16 57 31 75q18 20 56 20q36 0 64.5 -20t28.5 -55q0 -22 -13 -63l-236 -761q-21 -66 -46 -93q-28 -31 -91 -31q-61 0 -89 29q-25 26 -46 96l-164 548q-12 40 -21.5 78.5t-12.5 56.5l-4 19h-4q-10 -64 -37 -154l-164 -548q-22 -70 -46 -94q-31 -31 -91 -31q-63 0 -94 31
q-24 24 -45 89zM802 1173l-199 204q-29 27 -29 52q0 38 33 67t70 29q31 0 56 -35l168 -235q20 -26 20 -43q0 -26 -20.5 -45.5t-48.5 -19.5q-25 0 -50 26z" />
    <glyph glyph-name="Wacute" unicode="&#x1e82;" horiz-adv-x="1903" 
d="M388 115l-301 1126q-12 46 -12 61q0 39 31.5 62t71.5 23q38 0 60 -22q15 -15 31 -76l230 -897q12 -49 22.5 -99.5t14.5 -76.5l4 -26h4q15 88 45 202l231 882q16 63 49 88t88 25q56 0 88.5 -25t48.5 -88l230 -878q12 -48 23.5 -99.5t16.5 -78.5l5 -28h4q18 100 44 204
l221 894q15 62 30 77q22 22 62 22q38 0 68 -21.5t30 -57.5q0 -12 -13 -60l-302 -1133q-16 -59 -41 -86q-35 -35 -105 -35q-66 0 -101 35q-25 25 -41 85l-228 867q-12 44 -23 93.5t-16 77.5l-6 28h-4q-18 -100 -44 -199l-227 -867q-16 -60 -41 -85q-35 -35 -101 -35
q-70 0 -105 35q-26 26 -42 86zM848 1608l222 203q25 23 50 23q37 0 66.5 -34t29.5 -71q0 -31 -40 -58l-247 -165q-23 -15 -43 -15q-28 0 -47.5 21t-19.5 47q0 24 29 49z" />
    <glyph glyph-name="wacute" unicode="&#x1e83;" horiz-adv-x="1605" 
d="M325 114l-236 759q-14 44 -14 63q0 37 32 59t69 22t58 -21q13 -13 31 -75l172 -591q11 -38 20 -75.5t13 -55.5l3 -18h4q12 64 37 149l168 565q20 69 48 95.5t80 26.5q53 0 81 -26.5t48 -94.5l168 -566q11 -37 20.5 -74.5t12.5 -55.5l4 -19h4q13 65 36 149l165 592
q16 57 31 75q18 20 56 20q36 0 64.5 -20t28.5 -55q0 -22 -13 -63l-236 -761q-21 -66 -46 -93q-28 -31 -91 -31q-61 0 -89 29q-25 26 -46 96l-164 548q-12 40 -21.5 78.5t-12.5 56.5l-4 19h-4q-10 -64 -37 -154l-164 -548q-22 -70 -46 -94q-31 -31 -91 -31q-63 0 -94 31
q-24 24 -45 89zM702 1255l168 235q25 35 57 35q36 0 69.5 -29t33.5 -67q0 -24 -30 -52l-199 -204q-25 -26 -50 -26q-28 0 -48 19.5t-20 45.5q0 18 19 43z" />
    <glyph glyph-name="Wdieresis" unicode="&#x1e84;" horiz-adv-x="1903" 
d="M388 115l-301 1126q-12 46 -12 61q0 39 31.5 62t71.5 23q38 0 60 -22q15 -15 31 -76l230 -897q12 -49 22.5 -99.5t14.5 -76.5l4 -26h4q15 88 45 202l231 882q16 63 49 88t88 25q56 0 88.5 -25t48.5 -88l230 -878q12 -48 23.5 -99.5t16.5 -78.5l5 -28h4q18 100 44 204
l221 894q15 62 30 77q22 22 62 22q38 0 68 -21.5t30 -57.5q0 -12 -13 -60l-302 -1133q-16 -59 -41 -86q-35 -35 -105 -35q-66 0 -101 35q-25 25 -41 85l-228 867q-12 44 -23 93.5t-16 77.5l-6 28h-4q-18 -100 -44 -199l-227 -867q-16 -60 -41 -85q-35 -35 -101 -35
q-70 0 -105 35q-26 26 -42 86zM618 1650q0 51 34.5 85.5t85.5 34.5q52 0 85 -32.5t33 -83.5q0 -52 -34 -87t-86 -35t-85 33t-33 85zM1046 1650q0 51 35 85.5t87 34.5q51 0 83.5 -32.5t32.5 -83.5q0 -52 -34 -87t-85 -35q-52 0 -85.5 33t-33.5 85z" />
    <glyph glyph-name="wdieresis" unicode="&#x1e85;" horiz-adv-x="1605" 
d="M325 114l-236 759q-14 44 -14 63q0 37 32 59t69 22t58 -21q13 -13 31 -75l172 -591q11 -38 20 -75.5t13 -55.5l3 -18h4q12 64 37 149l168 565q20 69 48 95.5t80 26.5q53 0 81 -26.5t48 -94.5l168 -566q11 -37 20.5 -74.5t12.5 -55.5l4 -19h4q13 65 36 149l165 592
q16 57 31 75q18 20 56 20q36 0 64.5 -20t28.5 -55q0 -22 -13 -63l-236 -761q-21 -66 -46 -93q-28 -31 -91 -31q-61 0 -89 29q-25 26 -46 96l-164 548q-12 40 -21.5 78.5t-12.5 56.5l-4 19h-4q-10 -64 -37 -154l-164 -548q-22 -70 -46 -94q-31 -31 -91 -31q-63 0 -94 31
q-24 24 -45 89zM492 1318q0 50 34.5 84.5t85.5 34.5q52 0 84.5 -32.5t32.5 -82.5q0 -51 -34 -86t-85 -35q-52 0 -85 32.5t-33 84.5zM893 1318q0 50 34.5 84.5t86.5 34.5q51 0 83.5 -32.5t32.5 -82.5q0 -51 -33.5 -86t-84.5 -35q-53 0 -86 32.5t-33 84.5z" />
    <glyph glyph-name="uni1E9E" unicode="&#x1e9e;" horiz-adv-x="1428" 
d="M381 1223v-1146q0 -83 -94 -83t-94 83v1211q0 43 23.5 66.5t66.5 23.5h812q53 0 80 -24.5t27 -69.5q0 -51 -61 -118l-308 -340q220 -8 358 -111.5t138 -287.5q0 -200 -129.5 -322.5t-350.5 -122.5q-99 0 -169.5 21t-101.5 52q-28 28 -28 67q0 31 19.5 50.5t51.5 19.5
q21 0 52 -14t79 -27.5t110 -13.5q124 0 199 74.5t75 196.5q0 118 -90.5 187t-277.5 69h-42q-52 0 -80.5 27t-28.5 73q0 48 54 109l310 350h-600z" />
    <glyph glyph-name="Ygrave" unicode="&#x1ef2;" horiz-adv-x="1110" 
d="M459 574l-385 635q-22 35 -29 51t-7 34q0 40 33.5 66.5t71.5 26.5q33 0 54 -21q13 -13 41 -62l266 -457l58 -109h4q25 55 58 114l253 451q27 48 41 62q22 22 54 22q38 0 68.5 -26t30.5 -64q0 -24 -35 -82l-389 -641v-497q0 -83 -94 -83t-94 83v497zM532 1506l-248 165
q-39 26 -39 58q0 37 29 71t66 34q25 0 50 -23l223 -203q28 -24 28 -49q0 -26 -19.5 -47t-47.5 -21q-20 0 -42 15z" />
    <glyph glyph-name="ygrave" unicode="&#x1ef3;" horiz-adv-x="1004" 
d="M405 -10l-338 875q-19 49 -19 66q0 38 32 62t69 24t56 -22q12 -13 32 -67l219 -597l50 -153h4q16 65 48 153l217 602q19 52 30 63q21 21 56 21q36 0 65.5 -21t29.5 -57q0 -17 -17 -60l-308 -792q-121 -311 -248.5 -440.5t-296.5 -129.5q-81 0 -114 33q-22 22 -22 58
q0 29 18 47t49 18q15 0 37.5 -2t36.5 -2q96 0 171.5 80.5t142.5 240.5zM472 1173l-199 204q-29 27 -29 52q0 38 33 67t70 29q31 0 56 -35l168 -235q20 -26 20 -43q0 -26 -20.5 -45.5t-48.5 -19.5q-25 0 -50 26z" />
    <glyph glyph-name="endash" unicode="&#x2013;" horiz-adv-x="1168" 
d="M67 612h1034q67 0 67 -73q0 -74 -67 -74h-1034q-67 0 -67 74q0 73 67 73z" />
    <glyph glyph-name="emdash" unicode="&#x2014;" horiz-adv-x="2048" 
d="M250 612h1548q67 0 67 -73q0 -74 -67 -74h-1548q-67 0 -67 74q0 73 67 73z" />
    <glyph glyph-name="uni2015" unicode="&#x2015;" horiz-adv-x="2048" 
d="M250 612h1548q67 0 67 -73q0 -74 -67 -74h-1548q-67 0 -67 74q0 73 67 73z" />
    <glyph glyph-name="quoteleft" unicode="&#x2018;" horiz-adv-x="569" 
d="M154 1087q0 145 115 294q88 114 158 114q27 0 42.5 -14.5t15.5 -38.5q0 -16 -15 -36.5t-35.5 -42t-46.5 -69t-44 -108.5q30 -12 51 -41.5t21 -73.5q0 -58 -38 -96t-96 -38q-59 0 -93.5 40t-34.5 110z" />
    <glyph glyph-name="quoteright" unicode="&#x2019;" horiz-adv-x="569" 
d="M153 1361q0 58 38 96t96 38q59 0 94 -40t35 -110q0 -140 -116 -295q-87 -113 -157 -113q-28 0 -43.5 14t-15.5 38q0 17 15 37.5t35.5 42t46.5 69t44 108.5q-30 12 -51 41.5t-21 73.5z" />
    <glyph glyph-name="quotesinglbase" unicode="&#x201a;" horiz-adv-x="569" 
d="M153 112q0 57 38 95t96 38q59 0 94 -40t35 -109q0 -142 -116 -295q-88 -114 -157 -114q-28 0 -43.5 14t-15.5 38q0 17 15 37.5t35.5 42t46.5 69t44 108.5q-30 12 -51 41.5t-21 74.5z" />
    <glyph glyph-name="quotedblleft" unicode="&#x201c;" horiz-adv-x="996" 
d="M580 1087q0 144 116 294q88 114 157 114q27 0 42.5 -14.5t15.5 -38.5q0 -16 -15 -36.5t-35 -42t-46.5 -69t-44.5 -108.5q30 -12 51 -41.5t21 -73.5q0 -58 -38 -96t-95 -38q-59 0 -94 40t-35 110zM154 1087q0 145 115 294q88 114 158 114q27 0 42.5 -14.5t15.5 -38.5
q0 -16 -15 -36.5t-35.5 -42t-46.5 -69t-44 -108.5q30 -12 51 -41.5t21 -73.5q0 -58 -38 -96t-96 -38q-59 0 -93.5 40t-34.5 110z" />
    <glyph glyph-name="quotedblright" unicode="&#x201d;" horiz-adv-x="996" 
d="M153 1361q0 58 38 96t96 38q59 0 94 -40t35 -110q0 -140 -116 -295q-87 -113 -157 -113q-28 0 -43.5 14t-15.5 38q0 17 15 37.5t35.5 42t46.5 69t44 108.5q-30 12 -51 41.5t-21 73.5zM580 1361q0 58 38 96t96 38q59 0 93.5 -40t34.5 -110q0 -141 -115 -295
q-88 -113 -158 -113q-27 0 -42.5 14t-15.5 38q0 17 15 37.5t35 42t46.5 69t44.5 108.5q-30 12 -51 41.5t-21 73.5z" />
    <glyph glyph-name="quotedblbase" unicode="&#x201e;" horiz-adv-x="996" 
d="M153 112q0 57 38 95t96 38q59 0 94 -40t35 -109q0 -142 -116 -295q-88 -114 -157 -114q-28 0 -43.5 14t-15.5 38q0 17 15 37.5t35.5 42t46.5 69t44 108.5q-30 12 -51 41.5t-21 74.5zM580 112q0 57 38 95t96 38q59 0 93.5 -40t34.5 -109q0 -143 -115 -295
q-89 -114 -158 -114q-27 0 -42.5 14t-15.5 38q0 17 15 37.5t35 42t46.5 69t44.5 108.5q-30 12 -51 41.5t-21 74.5z" />
    <glyph glyph-name="dagger" unicode="&#x2020;" horiz-adv-x="1128" 
d="M474 792h-312q-34 0 -53.5 20.5t-19.5 58.5t19.5 58.5t53.5 20.5h312v366q0 82 90 82q91 0 91 -82v-366h311q35 0 54.5 -20.5t19.5 -58.5t-19.5 -58.5t-54.5 -20.5h-311v-1047q0 -82 -91 -82q-90 0 -90 82v1047z" />
    <glyph glyph-name="daggerdbl" unicode="&#x2021;" horiz-adv-x="1191" 
d="M505 806h-312q-34 0 -53.5 20.5t-19.5 59.5q0 38 19.5 58.5t53.5 20.5h312v351q0 82 91 82q44 0 67 -21.5t23 -60.5v-351h312q34 0 53.5 -20.5t19.5 -58.5q0 -39 -19.5 -59.5t-53.5 -20.5h-312v-537h312q34 0 53.5 -20.5t19.5 -58.5t-19.5 -58.5t-53.5 -20.5h-312v-366
q0 -39 -23 -60.5t-67 -21.5q-91 0 -91 82v366h-312q-34 0 -53.5 20.5t-19.5 58.5t19.5 58.5t53.5 20.5h312v537z" />
    <glyph glyph-name="bullet" unicode="&#x2022;" horiz-adv-x="923" 
d="M225 704q0 103 67.5 171t170.5 68q104 0 169.5 -65.5t65.5 -169.5t-67.5 -172t-171.5 -68q-103 0 -168.5 66t-65.5 170z" />
    <glyph glyph-name="ellipsis" unicode="&#x2026;" horiz-adv-x="1655" 
d="M154 112q0 58 38.5 96.5t96.5 38.5q57 0 93 -36.5t36 -94.5t-38 -96.5t-96 -38.5t-94 36.5t-36 94.5zM694 112q0 58 38.5 96.5t96.5 38.5t95 -36.5t37 -94.5t-39 -96.5t-97 -38.5t-94.5 36.5t-36.5 94.5zM1235 112q0 58 39 96.5t96 38.5q58 0 94.5 -36.5t36.5 -94.5
t-38.5 -96.5t-96.5 -38.5t-94.5 36.5t-36.5 94.5z" />
    <glyph glyph-name="perthousand" unicode="&#x2030;" horiz-adv-x="2753" 
d="M526 90l755 1267q22 40 58 40q28 0 51 -19t23 -46q0 -17 -15 -43l-754 -1267q-24 -40 -59 -40q-28 0 -51 19t-23 46q0 17 15 43zM107 994q0 191 94.5 296t249.5 105q151 0 239.5 -98t88.5 -284q0 -191 -94.5 -296t-248.5 -105q-151 0 -240 98t-89 284zM270 1004
q0 -136 49.5 -202t125.5 -66q75 0 123.5 66t48.5 201q0 136 -49.5 202.5t-125.5 66.5q-75 0 -123.5 -66t-48.5 -202zM1144 365q0 191 94.5 296t249.5 105q151 0 239.5 -98t88.5 -284q0 -191 -94.5 -296t-248.5 -105q-151 0 -240 98t-89 284zM1307 375q0 -136 49.5 -202
t125.5 -66q75 0 123.5 66t48.5 201q0 136 -49.5 202.5t-125.5 66.5q-75 0 -123.5 -66t-48.5 -202zM1973 365q0 191 94.5 296t249.5 105q151 0 239.5 -98t88.5 -284q0 -191 -94.5 -296t-248.5 -105q-151 0 -240 98t-89 284zM2136 375q0 -136 49.5 -202t125.5 -66
q75 0 123.5 66t48.5 201q0 136 -49.5 202.5t-125.5 66.5q-75 0 -123.5 -66t-48.5 -202z" />
    <glyph glyph-name="guilsinglleft" unicode="&#x2039;" horiz-adv-x="717" 
d="M294 508l282 -315q29 -31 29 -57q0 -31 -25 -54.5t-58 -23.5q-30 0 -63 34l-320 333q-37 39 -37 78q0 40 36 79l319 330q37 39 66 39q32 0 55.5 -22.5t23.5 -53.5q0 -22 -31 -59z" />
    <glyph glyph-name="guilsinglright" unicode="&#x203a;" horiz-adv-x="717" 
d="M422 499l-282 315q-29 32 -29 56q0 32 25 55.5t58 23.5q30 0 64 -34l320 -333q37 -39 37 -78q0 -40 -37 -79l-318 -330q-37 -39 -67 -39q-32 0 -55 22t-23 53q0 25 31 60z" />
    <glyph glyph-name="fraction" unicode="&#x2044;" horiz-adv-x="986" 
d="M57 90l755 1267q22 40 58 40q28 0 51 -19t23 -46q0 -17 -15 -43l-754 -1267q-24 -40 -59 -40q-28 0 -51 19t-23 46q0 17 15 43z" />
    <glyph glyph-name="zero.superior" unicode="&#x2070;" horiz-adv-x="886" 
d="M107 994q0 191 94.5 296t249.5 105q151 0 239.5 -98t88.5 -284q0 -191 -94.5 -296t-248.5 -105q-151 0 -240 98t-89 284zM270 1004q0 -136 49.5 -202t125.5 -66q75 0 123.5 66t48.5 201q0 136 -49.5 202.5t-125.5 66.5q-75 0 -123.5 -66t-48.5 -202z" />
    <glyph glyph-name="four.superior" unicode="&#x2074;" horiz-adv-x="772" 
d="M421 825h-269q-47 0 -71 22.5t-24 62.5q0 37 31 80l249 327q30 40 60 55.5t78 15.5q103 0 103 -80v-362h76q51 0 51 -61q0 -60 -51 -60h-76v-132q0 -70 -79 -70q-38 0 -58 18.5t-20 51.5v132zM421 946v289l-218 -289h218z" />
    <glyph glyph-name="zero.inferior" unicode="&#x2080;" horiz-adv-x="886" 
d="M107 365q0 191 94.5 296t249.5 105q151 0 239.5 -98t88.5 -284q0 -191 -94.5 -296t-248.5 -105q-151 0 -240 98t-89 284zM270 375q0 -136 49.5 -202t125.5 -66q75 0 123.5 66t48.5 201q0 136 -49.5 202.5t-125.5 66.5q-75 0 -123.5 -66t-48.5 -202z" />
    <glyph glyph-name="one.inferior" unicode="&#x2081;" horiz-adv-x="552" 
d="M241 582l-86 -34q-41 -15 -54 -15q-26 0 -42.5 17t-16.5 42q0 23 19 42q23 23 136 77q95 46 133 46q33 0 53.5 -20t20.5 -53v-619q0 -34 -21 -52.5t-61 -18.5q-81 0 -81 71v517z" />
    <glyph glyph-name="two.inferior" unicode="&#x2082;" horiz-adv-x="687" 
d="M238 127h316q26 0 40.5 -16.5t14.5 -46.5t-14.5 -47t-40.5 -17h-412q-41 0 -64 21.5t-23 56.5q0 46 40 83l144 134q100 93 136.5 143t36.5 102q0 46 -31 72.5t-91 26.5q-40 0 -88.5 -13.5t-59.5 -13.5q-21 0 -35 14t-14 36q0 26 19 45q22 22 82 38.5t136 16.5
q122 0 187.5 -55t65.5 -143q0 -85 -50.5 -155.5t-181.5 -182.5z" />
    <glyph glyph-name="three.inferior" unicode="&#x2083;" horiz-adv-x="697" 
d="M289 104q69 0 106.5 31.5t37.5 80.5q0 56 -47.5 84t-168.5 28q-24 0 -33 9q-16 17 -16 50t16 50q9 9 33 9q190 0 190 109q0 86 -120 86q-40 0 -81.5 -13t-52.5 -13q-23 0 -36.5 13.5t-13.5 37.5q0 26 19 44q20 21 74 36.5t126 15.5q124 0 187.5 -50.5t63.5 -134.5
q0 -58 -33.5 -102.5t-90.5 -68.5v-1q73 -16 112 -63t39 -121q0 -101 -81.5 -167.5t-226.5 -66.5q-141 0 -189 48q-19 19 -19 47q0 23 14.5 38.5t36.5 15.5q10 0 55 -16t99 -16z" />
    </font>
</defs>
</svg>
