<?xml version="1.0" standalone="no"?>
<!DOCTYPE svg PUBLIC "-//W3C//DTD SVG 1.1//EN" "http://www.w3.org/Graphics/SVG/1.1/DTD/svg11.dtd" >
<svg xmlns="http://www.w3.org/2000/svg" xmlns:xlink="http://www.w3.org/1999/xlink" version="1.1">
<metadata>
Created by FontForge 20201107 at Thu Jul 26 19:04:48 2012
 By 
Copyright (c) 2012 by Jan Fromm. All rights reserved.
</metadata>
<defs>
<font id="RooneySans-Bold" horiz-adv-x="1024" >
  <font-face 
    font-family="RooneySans Bold"
    font-weight="420"
    font-stretch="normal"
    units-per-em="2048"
    panose-1="2 11 8 3 4 3 2 6 2 4"
    ascent="1536"
    descent="-512"
    x-height="1017"
    cap-height="1385"
    bbox="-79 -512 2705 2048"
    underline-thickness="208"
    underline-position="-408"
    unicode-range="U+000D-FB02"
  />
<missing-glyph 
d="M398 440q0 -65 -51 -65q-18 0 -31.5 4t-15.5 4q-16 0 -16 -21q0 -13 10 -18q19 -8 49 -8q107 0 107 104v246q0 33 -33 33h-92q-17 0 -17 -21q0 -20 17 -20h73v-238zM529 360q0 -20 25 -20q11 0 19 5.5t8 14.5v152h141q14 0 14 20q0 21 -14 21h-141v125h157q17 0 17 20
q0 21 -17 21h-174q-35 0 -35 -33v-326zM165 539q0 149 98.5 248.5t247.5 99.5t248.5 -99.5t99.5 -248.5t-99.5 -247.5t-248.5 -98.5t-247.5 98.5t-98.5 247.5z" />
    <glyph glyph-name="f_b" unicode="fb" horiz-adv-x="1883" 
d="M193 814h-79q-41 0 -65 26.5t-24 75.5q0 48 24 74.5t65 26.5h79v57q0 199 130.5 310t389.5 111q136 0 224 -23.5t123 -58.5q38 -38 38 -104v-248q0 -71 -9 -154h3q4 5 11 14t33.5 31t57 39t81.5 31t106 14q193 0 305.5 -128t112.5 -372q0 -263 -149.5 -409.5
t-420.5 -146.5q-142 0 -235 28t-128 63q-40 40 -40 112v1087q-48 21 -147 21q-216 0 -216 -201v-73h124q41 0 65 -26.5t24 -74.5q0 -49 -24 -75.5t-65 -26.5h-122v-701q0 -120 -136 -120t-136 120v701zM1098 673v-450q6 -4 17.5 -10t52 -16t86.5 -10q123 0 195.5 84.5
t72.5 245.5q0 302 -209 302q-40 0 -77 -15t-61 -36.5t-42.5 -43t-26.5 -36.5z" />
    <glyph glyph-name="f_f" unicode="ff" horiz-adv-x="1351" 
d="M465 1017h373v86q0 78 22 140q-6 4 -17.5 9.5t-58 15t-104.5 9.5q-215 0 -215 -192v-68zM193 818h-80q-40 0 -64 26t-24 73t24 73.5t64 26.5h80v58q0 189 127.5 294.5t381.5 105.5q77 0 146 -13.5t100 -27.5l30 -14q96 73 241 73q121 0 171 -50q32 -32 32 -85
q0 -42 -22 -67t-55 -25q-13 0 -46 10t-66 10q-62 0 -92.5 -41.5t-30.5 -131.5v-96h137q40 0 64 -26.5t24 -73.5t-24 -73t-64 -26h-137v-705q0 -120 -136 -120t-136 120v705h-373v-705q0 -120 -136 -120t-136 120v705z" />
    <glyph glyph-name="f_h" unicode="fh" horiz-adv-x="1905" 
d="M193 814h-79q-41 0 -65 26.5t-24 75.5q0 48 24 74.5t65 26.5h79v57q0 199 130.5 310t389.5 111q136 0 224 -23.5t123 -58.5q38 -38 38 -104v-248q0 -71 -9 -154h3q4 5 11.5 14t34 31t57 39t81.5 31t107 14q179 0 281 -108.5t102 -307.5v-507q0 -120 -136 -120t-136 120
v475q0 231 -183 231q-40 0 -76.5 -15t-60 -36.5t-42 -43t-26.5 -36.5l-8 -15v-560q0 -120 -136 -120t-136 120v1157q-48 21 -147 21q-216 0 -216 -201v-73h124q41 0 65 -26.5t24 -74.5q0 -49 -24 -75.5t-65 -26.5h-122v-701q0 -120 -136 -120t-136 120v701z" />
    <glyph glyph-name="f_i" unicode="fi" horiz-adv-x="1257" 
d="M193 818h-80q-40 0 -64 26t-24 73t24 73.5t64 26.5h80v67q0 191 129.5 300t387.5 109q109 0 182 -22t106 -55q30 -30 30 -77q0 -43 -25 -69t-63 -26q-22 0 -52 10.5t-79.5 21t-118.5 10.5q-117 0 -171 -48t-54 -146v-75h524q121 0 121 -121v-783q0 -120 -136 -120
t-136 120v705h-373v-705q0 -120 -136 -120t-136 120v705z" />
    <glyph glyph-name="f_dotlessi" unicode="f&#x131;" horiz-adv-x="1257" 
d="M193 818h-80q-40 0 -64 26t-24 73t24 73.5t64 26.5h80v86q0 183 103 286.5t283 103.5q120 0 170 -50q32 -32 32 -85q0 -42 -22 -67t-55 -25q-13 0 -46 10t-65 10q-128 0 -128 -173v-96h524q121 0 121 -121v-783q0 -120 -136 -120t-136 120v705h-373v-705
q0 -120 -136 -120t-136 120v705z" />
    <glyph glyph-name="f_j" unicode="fj" horiz-adv-x="1257" 
d="M193 818h-80q-40 0 -64 26t-24 73t24 73.5t64 26.5h80v67q0 191 129.5 300t387.5 109q109 0 182 -22t106 -55q30 -30 30 -77q0 -43 -25 -69t-63 -26q-22 0 -52 10.5t-79.5 21t-118.5 10.5q-117 0 -171 -48t-54 -146v-75h524q121 0 121 -121v-883q0 -256 -132 -388
q-105 -105 -224 -105q-54 0 -86 27.5t-32 72.5q0 48 44 83q86 62 122 127.5t36 195.5v792h-373v-705q0 -120 -136 -120t-136 120v705z" />
    <glyph glyph-name="f_k" unicode="fk" horiz-adv-x="1755" 
d="M193 814h-79q-41 0 -65 26.5t-24 75.5q0 48 24 74.5t65 26.5h79v57q0 199 130.5 310t389.5 111q136 0 224 -23.5t123 -58.5q38 -38 38 -104v-720l330 362q22 25 41 43q36 33 84 33q54 0 96 -38.5t42 -87.5q0 -44 -43 -87l-260 -253l282 -349q37 -47 37 -88
q0 -56 -46.5 -95t-102.5 -39q-52 0 -86 36q-14 15 -38 47l-336 450v-410q0 -58 -34.5 -89t-101.5 -31t-101.5 31t-34.5 89v1157q-48 21 -147 21q-216 0 -216 -201v-73h124q41 0 65 -26.5t24 -74.5q0 -49 -24 -75.5t-65 -26.5h-122v-701q0 -120 -136 -120t-136 120v701z" />
    <glyph glyph-name="f_l" unicode="fl" horiz-adv-x="1296" 
d="M193 814h-79q-41 0 -65 26.5t-24 75.5q0 48 24 74.5t65 26.5h79v57q0 199 130.5 310t389.5 111q136 0 224 -23.5t123 -58.5q38 -38 38 -104v-976q0 -75 18 -104t53 -29q9 0 24.5 1.5t22.5 1.5q28 0 47 -21t19 -57q0 -51 -33 -84q-50 -52 -165 -52q-258 0 -258 272v1009
q-48 21 -147 21q-216 0 -216 -201v-73h124q41 0 65 -26.5t24 -74.5q0 -49 -24 -75.5t-65 -26.5h-122v-701q0 -120 -136 -120t-136 120v701z" />
    <glyph glyph-name="f_f_b" unicode="ffb" horiz-adv-x="2528" 
d="M465 1017h373v57q0 96 31 164q-6 4 -18.5 10.5t-61.5 17.5t-109 11q-215 0 -215 -192v-68zM193 818h-80q-40 0 -64 26t-24 73t24 73.5t64 26.5h80v58q0 190 127 295t382 105q53 0 103.5 -7t85 -16.5t61.5 -19.5t40 -17l13 -7q132 87 354 87q136 0 223.5 -23.5
t122.5 -58.5q38 -38 38 -104v-248q0 -71 -9 -154h3q4 5 11 14t33.5 31t57 39t81.5 31t106 14q193 0 305.5 -128t112.5 -372q0 -263 -149 -409.5t-421 -146.5q-142 0 -235.5 28.5t-127.5 62.5q-40 40 -40 112v1087q-48 21 -146 21q-217 0 -217 -201v-73h125q40 0 64 -26.5
t24 -73.5t-24 -73t-64 -26h-123v-705q0 -120 -136 -120t-136 120v705h-373v-705q0 -120 -136 -120t-136 120v705zM1743 673v-450q6 -4 17.5 -10t52 -16t86.5 -10q123 0 195.5 84.5t72.5 245.5q0 302 -209 302q-40 0 -77 -15t-61 -36.5t-42.5 -43t-26.5 -36.5z" />
    <glyph glyph-name="f_f_h" unicode="ffh" horiz-adv-x="2550" 
d="M465 1017h373v57q0 96 31 164q-6 4 -18.5 10.5t-61.5 17.5t-109 11q-215 0 -215 -192v-68zM193 818h-80q-40 0 -64 26t-24 73t24 73.5t64 26.5h80v58q0 190 127 295t382 105q53 0 103.5 -7t85 -16.5t61.5 -19.5t40 -17l13 -7q132 87 354 87q136 0 223.5 -23.5
t122.5 -58.5q38 -38 38 -104v-248q0 -71 -9 -154h3q4 5 11.5 14t34 31t57 39t81.5 31t107 14q179 0 281 -108.5t102 -307.5v-507q0 -120 -136 -120t-136 120v475q0 231 -183 231q-40 0 -76.5 -15t-60 -36.5t-42 -43t-26.5 -36.5l-8 -15v-560q0 -120 -136 -120t-136 120v1157
q-48 21 -146 21q-217 0 -217 -201v-73h125q40 0 64 -26.5t24 -73.5t-24 -73t-64 -26h-123v-705q0 -120 -136 -120t-136 120v705h-373v-705q0 -120 -136 -120t-136 120v705z" />
    <glyph glyph-name="f_f_i" unicode="ffi" horiz-adv-x="1902" 
d="M465 1017h373v67q0 86 29 156q-6 4 -18.5 10t-60.5 16.5t-108 10.5q-215 0 -215 -192v-68zM193 818h-80q-40 0 -64 26t-24 73t24 73.5t64 26.5h80v58q0 189 127.5 294.5t381.5 105.5q84 0 160 -16.5t110 -32.5l33 -17q131 84 350 84q109 0 182 -22t106 -55q31 -31 31 -77
q0 -43 -25.5 -69t-63.5 -26q-22 0 -52 10.5t-79.5 21t-118.5 10.5q-117 0 -171 -48t-54 -146v-75h524q121 0 121 -121v-783q0 -120 -136 -120t-136 120v705h-373v-705q0 -120 -136 -120t-136 120v705h-373v-705q0 -120 -136 -120t-136 120v705z" />
    <glyph glyph-name="f_f_j" unicode="ffj" horiz-adv-x="1902" 
d="M465 1017h373v67q0 86 29 156q-6 4 -18.5 10t-60.5 16.5t-108 10.5q-215 0 -215 -192v-68zM193 818h-80q-40 0 -64 26t-24 73t24 73.5t64 26.5h80v58q0 189 127.5 294.5t381.5 105.5q84 0 160 -16.5t110 -32.5l33 -17q131 84 350 84q109 0 182 -22t106 -55q31 -31 31 -77
q0 -43 -25.5 -69t-63.5 -26q-22 0 -52 10.5t-79.5 21t-118.5 10.5q-117 0 -171 -48t-54 -146v-75h524q121 0 121 -121v-883q0 -258 -132 -388q-105 -105 -223 -105q-55 0 -87 27.5t-32 72.5q0 48 44 83q86 62 122 127.5t36 195.5v792h-373v-705q0 -120 -136 -120t-136 120
v705h-373v-705q0 -120 -136 -120t-136 120v705z" />
    <glyph glyph-name="f_f_k" unicode="ffk" horiz-adv-x="2400" 
d="M465 1017h373v57q0 96 31 164q-6 4 -18.5 10.5t-61.5 17.5t-109 11q-215 0 -215 -192v-68zM193 818h-80q-40 0 -64 26t-24 73t24 73.5t64 26.5h80v58q0 190 127 295t382 105q53 0 103.5 -7t85 -16.5t61.5 -19.5t40 -17l13 -7q132 87 354 87q136 0 223.5 -23.5
t122.5 -58.5q38 -38 38 -104v-720l330 362q33 35 42 43q36 33 83 33q54 0 96 -38.5t42 -87.5q0 -45 -43 -87l-260 -253l282 -349q37 -47 37 -88q0 -56 -46.5 -95t-102.5 -39q-49 0 -85 36q-15 15 -39 47l-336 450v-410q0 -58 -34.5 -89t-101.5 -31t-101.5 31t-34.5 89v1157
q-48 21 -146 21q-217 0 -217 -201v-73h125q40 0 64 -26.5t24 -73.5t-24 -73t-64 -26h-123v-705q0 -120 -136 -120t-136 120v705h-373v-705q0 -120 -136 -120t-136 120v705z" />
    <glyph glyph-name="f_f_l" unicode="ffl" horiz-adv-x="1941" 
d="M465 1017h373v57q0 96 31 164q-6 4 -18.5 10.5t-61.5 17.5t-109 11q-215 0 -215 -192v-68zM193 818h-80q-40 0 -64 26t-24 73t24 73.5t64 26.5h80v58q0 190 127 295t382 105q53 0 103.5 -7t85 -16.5t61.5 -19.5t40 -17l13 -7q132 87 354 87q136 0 223.5 -23.5
t122.5 -58.5q38 -38 38 -104v-976q0 -75 18 -104t53 -29q9 0 24.5 1.5t22.5 1.5q28 0 47 -21t19 -57q0 -50 -32 -84q-52 -52 -166 -52q-258 0 -258 272v1009q-48 21 -146 21q-217 0 -217 -201v-73h125q40 0 64 -26.5t24 -73.5t-24 -73t-64 -26h-123v-705q0 -120 -136 -120
t-136 120v705h-373v-705q0 -120 -136 -120t-136 120v705z" />
    <glyph glyph-name="f_thorn" unicode="f&#xfe;" horiz-adv-x="1883" 
d="M193 814h-79q-41 0 -65 26.5t-24 75.5q0 48 24 74.5t65 26.5h79v57q0 199 130.5 310t389.5 111q136 0 224 -23.5t123 -58.5q38 -38 38 -104v-248q0 -71 -9 -154h3q4 5 11 14t33.5 31t57 39t81.5 31t106 14q193 0 305.5 -128t112.5 -372q0 -263 -149.5 -409.5
t-420.5 -146.5q-33 0 -66 4t-49 8l-16 4l-3 -1q3 -51 3 -108v-245q0 -120 -136 -120t-136 120v1628q-48 21 -147 21q-216 0 -216 -201v-73h124q41 0 65 -26.5t24 -74.5q0 -49 -24 -75.5t-65 -26.5h-122v-701q0 -120 -136 -120t-136 120v701zM1098 673v-454q54 -32 156 -32
q123 0 195.5 84.5t72.5 245.5q0 302 -209 302q-40 0 -77 -15t-61 -36.5t-42.5 -43t-26.5 -36.5z" />
    <glyph glyph-name="f_t" unicode="ft" horiz-adv-x="1393" 
d="M193 818h-80q-40 0 -64 26t-24 73t24 73.5t64 26.5h80v86q0 182 98.5 286t270.5 104q119 0 168 -49q32 -32 32 -85q0 -42 -22 -67t-55 -25q-13 0 -45 9.5t-64 9.5q-60 0 -87.5 -42t-27.5 -131v-96h376l32 169q20 111 123 111q52 0 80 -28.5t28 -82.5v-169h170
q40 0 64 -26.5t24 -73.5t-24 -73t-64 -26h-170v-485q0 -69 24.5 -100t74.5 -31q27 0 55.5 7t38.5 7q32 0 52.5 -22.5t20.5 -58.5q0 -49 -35 -84q-25 -25 -77.5 -43.5t-129.5 -18.5q-151 0 -223.5 72.5t-72.5 221.5v535h-363v-705q0 -120 -136 -120t-136 120v705z" />
    <glyph glyph-name="f_f_t" unicode="fft" horiz-adv-x="2038" 
d="M465 1017h373v86q0 78 22 140q-6 4 -17.5 9.5t-58 15t-104.5 9.5q-215 0 -215 -192v-68zM193 818h-80q-40 0 -64 26t-24 73t24 73.5t64 26.5h80v58q0 189 127.5 294.5t381.5 105.5q76 0 144.5 -13.5t99.5 -27.5l30 -13q89 72 231 72q119 0 168 -49q32 -32 32 -85
q0 -42 -22 -67t-54 -25q-13 0 -45 9.5t-64 9.5q-60 0 -88 -42t-28 -131v-96h376l32 169q20 111 123 111q52 0 80 -28.5t28 -82.5v-169h170q40 0 64 -26.5t24 -73.5t-24 -73t-64 -26h-170v-485q0 -69 24 -100t74 -31q27 0 56 7t39 7q32 0 52.5 -22.5t20.5 -58.5
q0 -49 -35 -84q-25 -25 -77 -43.5t-129 -18.5q-151 0 -224 72.5t-73 221.5v535h-363v-705q0 -120 -136 -120t-136 120v705h-373v-705q0 -120 -136 -120t-136 120v705z" />
    <glyph glyph-name="t_t" unicode="tt" horiz-adv-x="1419" 
d="M190 816h-79q-41 0 -65 26t-24 74t24 74.5t65 26.5h88l32 169q20 111 123 111q52 0 80 -28.5t28 -82.5v-169h402l32 169q20 111 123 111q52 0 80 -28.5t28 -82.5v-169h169q41 0 65 -26.5t24 -74.5t-24 -74t-65 -26h-169v-483q0 -69 24 -100t74 -31q27 0 56 7t39 7
q32 0 52.5 -22.5t20.5 -58.5q0 -49 -35 -84q-25 -25 -77.5 -43.5t-129.5 -18.5q-151 0 -223.5 72t-72.5 222v535h-393v-485q0 -131 90 -131q24 0 49.5 6.5t35.5 6.5q32 0 52.5 -22.5t20.5 -58.5q0 -49 -35 -84q-61 -61 -197 -61q-146 0 -217 72.5t-71 221.5v533z" />
    <glyph glyph-name=".notdef" 
d="M398 440q0 -65 -51 -65q-18 0 -31.5 4t-15.5 4q-16 0 -16 -21q0 -13 10 -18q19 -8 49 -8q107 0 107 104v246q0 33 -33 33h-92q-17 0 -17 -21q0 -20 17 -20h73v-238zM529 360q0 -20 25 -20q11 0 19 5.5t8 14.5v152h141q14 0 14 20q0 21 -14 21h-141v125h157q17 0 17 20
q0 21 -17 21h-174q-35 0 -35 -33v-326zM165 539q0 149 98.5 248.5t247.5 99.5t248.5 -99.5t99.5 -248.5t-99.5 -247.5t-248.5 -98.5t-247.5 98.5t-98.5 247.5z" />
    <glyph glyph-name=".null" horiz-adv-x="0" 
 />
    <glyph glyph-name=".null" horiz-adv-x="0" 
 />
    <glyph glyph-name="nonmarkingreturn" horiz-adv-x="682" 
 />
    <glyph glyph-name="CR" unicode="&#xd;" horiz-adv-x="0" 
 />
    <glyph glyph-name="space" unicode=" " horiz-adv-x="526" 
 />
    <glyph glyph-name="exclam" unicode="!" horiz-adv-x="704" 
d="M230 518l-23 715q-1 29 -2 60.5t-1.5 49.5t-0.5 33q0 50 36.5 79.5t112.5 29.5q149 0 149 -109q0 -30 -3 -143l-23 -715q-2 -43 -33 -68.5t-90 -25.5q-58 0 -89 25.5t-33 68.5zM181 142q0 72 49.5 119.5t123.5 47.5q76 0 123 -45.5t47 -117.5q0 -71 -49 -118.5
t-125 -47.5q-75 0 -122 45.5t-47 116.5z" />
    <glyph glyph-name="quotedbl" unicode="&#x22;" horiz-adv-x="852" 
d="M146 1005l-25 350q-3 42 -3 53q0 41 31.5 64t88.5 23t88 -23t31 -64q0 -11 -3 -53l-24 -350q-3 -36 -28 -54.5t-64 -18.5q-40 0 -64.5 18.5t-27.5 54.5zM522 1005l-25 350q-3 42 -3 53q0 41 31.5 64t88.5 23t88 -23t31 -64q0 -11 -3 -53l-24 -350q-3 -36 -28 -54.5
t-64 -18.5q-40 0 -64.5 18.5t-27.5 54.5z" />
    <glyph glyph-name="numbersign" unicode="#" horiz-adv-x="1498" 
d="M280 334h-146q-41 0 -63 22.5t-22 64.5q0 88 85 88h199l114 358h-147q-41 0 -63 22.5t-22 64.5q0 88 85 88h200l86 270q26 85 100 85q46 0 77 -25t31 -67q0 -26 -9 -56l-67 -207h278l87 270q26 85 100 85q46 0 77 -25t31 -67q0 -26 -9 -56l-66 -207h147q40 0 63 -22.5
t23 -65.5q0 -42 -23 -64.5t-63 -22.5h-201l-113 -358h148q40 0 63 -22.5t23 -65.5q0 -42 -23 -64.5t-63 -22.5h-201l-85 -270q-27 -85 -101 -85q-47 0 -77.5 25t-30.5 67q0 29 9 56l66 207h-277l-87 -270q-26 -85 -100 -85q-47 0 -77.5 25t-30.5 67q0 29 9 56zM665 867
l-113 -358h278l114 358h-279z" />
    <glyph glyph-name="dollar" unicode="$" horiz-adv-x="1105" 
d="M462 -203v206q-107 3 -187.5 28.5t-112.5 57.5q-39 39 -39 89q0 43 26 68.5t67 25.5q24 0 60 -15t94 -30.5t137 -15.5q115 0 171 44t56 119q0 52 -34 89.5t-88 61t-119.5 45t-131.5 50t-120 66t-88 101.5t-34 150q0 143 87.5 241.5t255.5 127.5v215q0 89 92 89
q94 0 94 -89v-204q88 -3 157.5 -27t102.5 -57q36 -36 36 -86q0 -42 -26 -67t-67 -25q-25 0 -59.5 14t-86 28t-116.5 14q-104 0 -153 -38t-49 -104q0 -48 34 -82.5t88 -56.5t119.5 -43t131.5 -49.5t120 -68t88 -106.5t34 -157q0 -152 -90.5 -255t-263.5 -135v-219
q0 -90 -93 -90t-93 90z" />
    <glyph glyph-name="percent" unicode="%" horiz-adv-x="1956" 
d="M535 119l734 1229q29 50 75 50q37 0 67 -25t30 -60q0 -21 -19 -53l-734 -1229q-29 -50 -75 -50q-37 0 -67 24.5t-30 59.5q0 22 19 54zM95 995q0 188 100 294t262 106q165 0 256.5 -97t91.5 -285q0 -187 -100 -293.5t-263 -106.5q-164 0 -255.5 97t-91.5 285zM310 1005
q0 -121 40 -176.5t101 -55.5t100 55t39 175q0 122 -40 177.5t-102 55.5q-60 0 -99 -55.5t-39 -175.5zM1151 365q0 188 100 294t262 106q165 0 256.5 -97t91.5 -285q0 -187 -100 -293.5t-263 -106.5q-164 0 -255.5 97t-91.5 285zM1366 375q0 -121 40 -176.5t101 -55.5t100 55
t39 175q0 122 -40 177.5t-102 55.5q-60 0 -99 -55.5t-39 -175.5z" />
    <glyph glyph-name="ampersand" unicode="&#x26;" horiz-adv-x="1665" 
d="M1062 1017h372q42 0 66 -26.5t24 -74.5q0 -49 -24 -75.5t-66 -26.5h-113q37 -40 61.5 -111.5t24.5 -156.5q0 -125 -55 -241q62 -37 144 -82q46 -25 69 -49.5t23 -64.5q0 -49 -34.5 -85t-89.5 -36q-43 0 -97 26q-73 34 -180 101q-50 -50 -171 -92.5t-294 -42.5
q-296 0 -449 124.5t-153 328.5q0 81 27.5 154.5t66.5 121t78 83t66 51.5l28 16q-70 131 -70 249q0 180 112 283.5t322 103.5q100 0 166.5 -21t95.5 -50q33 -33 33 -85q0 -38 -24.5 -63.5t-61.5 -25.5q-19 0 -83 21t-125 21q-83 0 -126.5 -43t-43.5 -126q0 -145 149 -321.5
t410 -363.5q16 39 16 106q0 68 -20 121.5t-45.5 84.5t-69.5 71q-26 23 -36.5 45t-10.5 55q0 44 22.5 70t65.5 26zM747 192q80 0 143.5 17.5t92.5 45.5q-299 213 -473 433q-5 -3 -13.5 -9t-30 -27t-37.5 -45t-29.5 -64t-13.5 -84q0 -123 90 -195t271 -72z" />
    <glyph glyph-name="quotesingle" unicode="'" horiz-adv-x="476" 
d="M146 1005l-25 350q-3 42 -3 53q0 41 31.5 64t88.5 23t88 -23t31 -64q0 -11 -3 -53l-24 -350q-3 -36 -28 -54.5t-64 -18.5q-40 0 -64.5 18.5t-27.5 54.5z" />
    <glyph glyph-name="parenleft" unicode="(" horiz-adv-x="679" 
d="M121 584q0 279 86 523.5t243 418.5q38 41 88 41q44 0 72 -25.5t28 -60.5q0 -30 -25 -68q-232 -359 -232 -829q0 -472 232 -829q25 -38 25 -68q0 -36 -28 -61t-72 -25q-52 0 -88 40q-157 175 -243 419.5t-86 523.5z" />
    <glyph glyph-name="parenright" unicode=")" horiz-adv-x="679" 
d="M298 584q0 472 -231 828q-26 42 -26 68q0 36 28 61t72 25q53 0 89 -40q157 -176 243 -420.5t86 -521.5q0 -279 -86 -522.5t-243 -420.5q-36 -41 -89 -41q-43 0 -71.5 25.5t-28.5 61.5q0 26 26 68q231 356 231 829z" />
    <glyph glyph-name="asterisk" unicode="*" horiz-adv-x="850" 
d="M359 1016l-125 -86q-30 -21 -50 -21q-34 0 -59 31.5t-25 66.5q0 24 14 39t43 27l134 59l-136 63q-31 13 -44 27t-13 38q0 38 26.5 70.5t58.5 32.5q21 0 51 -22l125 -87l-16 149q-4 23 -4 29q0 27 24.5 44t61.5 17q38 0 62 -17t24 -44q0 -4 -3 -29l-16 -149l124 85
q29 22 51 22q33 0 58.5 -32t25.5 -67q0 -24 -14 -38.5t-44 -27.5l-134 -58l136 -63q31 -14 44.5 -28t13.5 -38q0 -38 -27 -70.5t-58 -32.5q-21 0 -52 23l-124 87l16 -149q3 -25 3 -30q0 -27 -24 -43.5t-62 -16.5q-37 0 -61.5 16.5t-24.5 43.5q0 7 4 30z" />
    <glyph glyph-name="plus" unicode="+" horiz-adv-x="1168" 
d="M474 484h-244q-43 0 -68.5 27t-25.5 73t25.5 73t68.5 27h244v238q0 57 29 86t81 29t81 -29t29 -86v-238h244q43 0 68.5 -27t25.5 -73t-25.5 -73t-68.5 -27h-244v-238q0 -57 -29 -86.5t-81 -29.5t-81 29.5t-29 86.5v238z" />
    <glyph glyph-name="comma" unicode="," horiz-adv-x="610" 
d="M132 151q0 76 50 126t126 50q78 0 124 -52.5t46 -144.5q0 -172 -126 -338q-100 -135 -194 -135q-39 0 -61 20t-22 53q0 21 16.5 45t38.5 46.5t50 70t45 107.5q-38 17 -65.5 55.5t-27.5 96.5z" />
    <glyph glyph-name="hyphen" unicode="-" horiz-adv-x="937" 
d="M218 653h500q43 0 67 -27t24 -77q0 -51 -24 -78.5t-67 -27.5h-500q-42 0 -66.5 27.5t-24.5 78.5q0 50 24.5 77t66.5 27z" />
    <glyph glyph-name="period" unicode="." horiz-adv-x="610" 
d="M132 151q0 76 50 126t126 50q75 0 122.5 -48t47.5 -124q0 -75 -49.5 -125t-125.5 -50q-75 0 -123 48t-48 123z" />
    <glyph glyph-name="slash" unicode="/" horiz-adv-x="877" 
d="M16 -155l570 1563q16 44 40 63.5t63 19.5q49 0 88.5 -29.5t39.5 -73.5q0 -19 -18 -70l-570 -1563q-16 -44 -40 -63.5t-63 -19.5q-49 0 -88.5 29.5t-39.5 74.5q0 18 18 69z" />
    <glyph glyph-name="zero" unicode="0" horiz-adv-x="1302" 
d="M93 517q0 265 153 418.5t417 153.5q252 0 399 -145t147 -391q0 -265 -153 -419t-417 -154q-252 0 -399 145t-147 392zM366 537q0 -163 80.5 -255t206.5 -92q127 0 204.5 89.5t77.5 253.5q0 163 -80 254.5t-206 91.5q-127 0 -205 -89.5t-78 -252.5z" />
    <glyph glyph-name="one" unicode="1" horiz-adv-x="735" 
d="M299 791l-110 -37q-47 -15 -73 -15q-41 0 -67 27.5t-26 67.5q0 41 30 71q35 35 199 111q139 64 195 64q58 0 91 -34t33 -97v-836q0 -58 -34.5 -89t-101.5 -31q-136 0 -136 120v678z" />
    <glyph glyph-name="two" unicode="2" horiz-adv-x="976" 
d="M386 221h435q43 0 68.5 -28.5t25.5 -81.5q0 -54 -25.5 -82.5t-68.5 -28.5h-623q-69 0 -108 36.5t-39 99.5q0 41 18.5 73.5t61.5 68.5l187 157q137 115 178 162q75 82 75 153q0 60 -42.5 94.5t-129.5 34.5q-68 0 -138.5 -22.5t-86.5 -22.5q-38 0 -60.5 23.5t-22.5 63.5
q0 46 30 76q37 37 127.5 64.5t207.5 27.5q203 0 304 -81.5t101 -222.5q0 -64 -22.5 -122.5t-71.5 -115.5t-102 -104t-137 -112z" />
    <glyph glyph-name="three" unicode="3" horiz-adv-x="992" 
d="M389 -128q112 0 176 60t64 157q0 53 -17 90.5t-57.5 66.5t-111.5 43.5t-174 14.5q-37 0 -54 16q-28 26 -27.5 83.5t27.5 84.5q16 16 54 16q316 0 316 210q0 168 -200 168q-67 0 -136 -22t-87 -22q-37 0 -60 23t-23 62q0 44 30 74q37 37 126.5 64.5t209.5 27.5
q204 0 310 -91t106 -247q0 -107 -59 -189.5t-157 -126.5v-2q125 -30 194 -115t69 -219q0 -187 -137 -307t-377 -120q-115 0 -196 24.5t-113 56.5q-37 37 -37 87q0 41 24 65.5t62 24.5q21 0 53 -14.5t83.5 -29t118.5 -14.5z" />
    <glyph glyph-name="four" unicode="4" horiz-adv-x="1130" 
d="M640 70h-446q-79 0 -119.5 38.5t-40.5 107.5q0 67 51 141l405 587q54 78 107.5 108.5t132.5 30.5q170 0 170 -145v-657h123q42 0 66.5 -27.5t24.5 -77.5q0 -51 -24.5 -78.5t-66.5 -27.5h-123v-268q0 -118 -131 -118q-129 0 -129 118v268zM640 281v524l-357 -524h357z" />
    <glyph glyph-name="five" unicode="5" horiz-adv-x="1001" 
d="M379 848l-14 -293q292 -12 429.5 -128t137.5 -309q0 -202 -136 -324t-385 -122q-117 0 -197.5 24t-113.5 57q-37 37 -37 88q0 41 24 65.5t62 24.5q21 0 53.5 -14t84.5 -28.5t121 -14.5q117 0 181.5 60t64.5 161q0 116 -104 183.5t-323 67.5q-100 0 -95 100l26 515
q3 108 114 108h525q44 0 69.5 -28.5t25.5 -81.5q0 -54 -25.5 -82.5t-69.5 -28.5h-418z" />
    <glyph glyph-name="six" unicode="6" horiz-adv-x="1155" 
d="M98 583q0 392 174 604t475 212q155 0 206 -51q28 -28 28 -72q0 -43 -24.5 -68t-63.5 -25q-14 0 -56.5 5.5t-83.5 5.5q-322 0 -377 -406q4 3 12 8.5t35 19t56.5 24t76.5 19t96 8.5q194 0 304.5 -111t110.5 -304q0 -216 -129 -344t-352 -128q-235 0 -361.5 151.5
t-126.5 451.5zM581 660q-37 0 -73 -8.5t-61 -20t-44.5 -23.5t-28.5 -20l-10 -9q3 -211 63 -301t171 -90q90 0 143.5 63.5t53.5 179.5q0 111 -56 170t-158 59z" />
    <glyph glyph-name="seven" unicode="7" horiz-adv-x="954" 
d="M584 843h-464q-45 0 -70.5 29t-25.5 84t25.5 84t70.5 29h641q72 0 106.5 -33.5t34.5 -89.5q0 -60 -36 -138q-254 -527 -387 -1001q-19 -67 -49 -96.5t-83 -29.5q-59 0 -94 29.5t-35 85.5q0 30 15 90q91 365 351 957z" />
    <glyph glyph-name="eight" unicode="8" horiz-adv-x="1120" 
d="M83 339q0 118 67 201.5t192 159.5q-226 134 -226 330q0 163 121.5 266t340.5 103q200 0 312.5 -94t112.5 -235q0 -112 -60 -189.5t-172 -144.5q266 -148 266 -358q0 -184 -126 -291t-370 -107q-221 0 -339.5 99t-118.5 260zM345 364q0 -87 56 -137t160 -50q102 0 156 49
t54 133q0 79 -59 134.5t-175 109.5q-97 -58 -144.5 -112t-47.5 -127zM382 1048q0 -72 47.5 -120t147.5 -97q83 50 123.5 99t40.5 114q0 70 -48.5 113.5t-134.5 43.5q-82 0 -129 -42.5t-47 -110.5z" />
    <glyph glyph-name="nine" unicode="9" horiz-adv-x="1156" 
d="M360 638q0 -111 56 -170t158 -59q59 0 113.5 20.5t78.5 40.5l25 20q0 391 -234 391q-90 0 -143.5 -63.5t-53.5 -179.5zM88 617q0 217 129 344.5t352 127.5q235 0 361.5 -151t126.5 -451q0 -395 -180 -605.5t-509 -210.5q-156 0 -206 50q-29 29 -29 73q0 43 25 67.5
t64 24.5q13 0 55.5 -5t83.5 -5q103 0 179 28.5t123.5 84t75 126t40.5 166.5q-4 -3 -12 -8.5t-34.5 -19t-56 -24t-76.5 -19t-96 -8.5q-195 0 -305.5 111t-110.5 304z" />
    <glyph glyph-name="colon" unicode=":" horiz-adv-x="610" 
d="M132 151q0 76 50 126t126 50q75 0 122.5 -48t47.5 -124q0 -75 -49.5 -125t-125.5 -50q-75 0 -123 48t-48 123zM132 759q0 75 50 125t126 50q75 0 122.5 -48t47.5 -123q0 -76 -49.5 -125.5t-125.5 -49.5q-75 0 -123 47.5t-48 123.5z" />
    <glyph glyph-name="semicolon" unicode=";" horiz-adv-x="610" 
d="M132 759q0 75 50 125t126 50q75 0 122.5 -48t47.5 -123q0 -76 -49.5 -125.5t-125.5 -49.5q-75 0 -123 47.5t-48 123.5zM132 151q0 76 50 126t126 50q78 0 124 -52.5t46 -144.5q0 -172 -126 -338q-100 -135 -195 -135q-39 0 -60.5 20t-21.5 53q0 21 16.5 45t38.5 46.5
t50 70t45 107.5q-38 17 -65.5 55.5t-27.5 96.5z" />
    <glyph glyph-name="less" unicode="&#x3c;" horiz-adv-x="1168" 
d="M496 588l379 -252q48 -32 48 -82q0 -46 -34.5 -84.5t-78.5 -38.5q-33 0 -73 27l-477 313q-64 41 -64 110q0 67 64 109l482 317q44 28 73 28q44 0 76.5 -35.5t32.5 -78.5q0 -50 -48 -82z" />
    <glyph glyph-name="equal" unicode="=" horiz-adv-x="1168" 
d="M249 484h668q43 0 68.5 -27t25.5 -72q0 -46 -25 -73t-69 -27h-667q-44 0 -69 27t-25 73t25 72.5t68 26.5zM250 881h667q43 0 68.5 -26.5t25.5 -72.5t-25 -73t-69 -27h-667q-44 0 -69 27t-25 73t25.5 72.5t68.5 26.5z" />
    <glyph glyph-name="greater" unicode="&#x3e;" horiz-adv-x="1168" 
d="M672 576l-379 253q-48 32 -48 82q0 46 34.5 84t78.5 38q34 0 73 -26l477 -313q64 -43 64 -110q0 -68 -64 -110l-482 -316q-44 -28 -73 -28q-44 0 -76.5 35.5t-32.5 78.5q0 49 48 81z" />
    <glyph glyph-name="question" unicode="?" horiz-adv-x="852" 
d="M223 624q0 61 22.5 115.5t55.5 92t72.5 76.5t72.5 70.5t55.5 73t22.5 84.5q0 69 -47 108t-144 39q-66 0 -122.5 -18t-73.5 -18q-38 0 -60.5 23t-22.5 61q0 44 32 76q37 37 118 62.5t188 25.5q205 0 308.5 -88.5t103.5 -242.5q0 -67 -23 -126t-57.5 -99t-75 -80.5
t-75 -72.5t-57.5 -74.5t-23 -86.5q0 -37 8 -70t8 -44q0 -40 -33 -63.5t-96 -23.5q-74 0 -115.5 50t-41.5 150zM218 142q0 72 49.5 119.5t123.5 47.5q75 0 122 -45.5t47 -117.5t-49 -119t-124 -47t-122 45.5t-47 116.5z" />
    <glyph glyph-name="at" unicode="@" horiz-adv-x="2128" 
d="M1492 864l-34 -402q-7 -79 14.5 -112t72.5 -33q40 0 77.5 23.5t71.5 72.5t54.5 138t20.5 207q0 254 -146 391.5t-428 137.5q-242 0 -429 -101.5t-289 -282t-102 -410.5q0 -615 640 -615q109 0 193.5 14t132 27.5t65.5 13.5q37 0 59.5 -23t22.5 -59q0 -44 -31 -75
q-41 -41 -162.5 -72.5t-300.5 -31.5q-422 0 -644.5 210t-222.5 591q0 222 77.5 411t217 324t343 211t446.5 76q388 0 594 -187t206 -516q0 -309 -133.5 -488.5t-362.5 -179.5q-99 0 -162 38.5t-88 105.5l-4 2q-4 -6 -11.5 -16t-34.5 -35t-58.5 -44t-82 -35t-105.5 -16
q-161 0 -252.5 97.5t-91.5 274.5q0 245 150.5 394t398.5 149q195 0 275 -61q27 -21 36.5 -47t6.5 -67zM1213 442l30 372q-36 25 -115 25q-108 0 -178.5 -85t-70.5 -239q0 -94 40 -140t113 -46q34 0 65 11.5t51 28.5t35.5 33.5t22.5 27.5z" />
    <glyph glyph-name="A" unicode="A" horiz-adv-x="1293" 
d="M386 324l-67 -206q-25 -76 -46 -97q-31 -31 -87 -31q-55 0 -100 33t-45 85q0 22 20 81l351 1009q32 91 74 133q53 53 160 53t160 -53q42 -42 74 -133l352 -1004q19 -53 19 -80q0 -57 -47 -90.5t-105 -33.5q-57 0 -91 34q-21 21 -45 93l-71 207h-506zM448 537h378
l-131 394l-61 200h-4q-23 -92 -57 -200z" />
    <glyph glyph-name="B" unicode="B" horiz-adv-x="1247" 
d="M438 207h145q145 0 216.5 55t71.5 147q0 195 -288 195h-145v-397zM438 811h135q126 0 189 50.5t63 134.5q0 175 -249 175h-138v-360zM165 127v1124q0 60 33 93.5t94 33.5h297q264 0 390 -93.5t126 -250.5q0 -111 -58.5 -190t-161.5 -113v-3q125 -21 197 -101.5t72 -204.5
q0 -191 -146.5 -306.5t-438.5 -115.5h-277q-61 0 -94 33.5t-33 93.5z" />
    <glyph glyph-name="C" unicode="C" horiz-adv-x="1189" 
d="M91 643q0 346 184 549.5t484 203.5q115 0 197.5 -29.5t119.5 -66.5q40 -40 40 -97q0 -43 -27 -71t-69 -28q-22 0 -55.5 17t-87 34.5t-124.5 17.5q-78 0 -145 -31.5t-119 -92t-82 -157t-30 -218.5q0 -221 108 -343.5t282 -122.5q69 0 123.5 17t89.5 33.5t56 16.5
q36 0 60 -26.5t24 -66.5q0 -51 -39 -90q-44 -43 -137 -76t-225 -33q-283 0 -455.5 178.5t-172.5 481.5z" />
    <glyph glyph-name="D" unicode="D" horiz-adv-x="1419" 
d="M165 127v1124q0 60 33 93.5t94 33.5h335q340 0 522 -173.5t182 -485.5q0 -337 -194 -528t-539 -191h-306q-61 0 -94 33.5t-33 93.5zM444 215h168q203 0 318 124.5t115 358.5q0 465 -433 465h-168v-948z" />
    <glyph glyph-name="E" unicode="E" horiz-adv-x="1086" 
d="M444 597v-380h470q44 0 69 -28t25 -81q0 -52 -25 -80t-69 -28h-622q-61 0 -94 33.5t-33 93.5v1124q0 60 33 93.5t94 33.5h617q44 0 69.5 -28t25.5 -80q0 -53 -25.5 -81t-69.5 -28h-465v-351h397q43 0 68 -27.5t25 -79.5q0 -51 -25 -78.5t-68 -27.5h-397z" />
    <glyph glyph-name="F" unicode="F" horiz-adv-x="1028" 
d="M444 570v-454q0 -59 -35.5 -91t-104.5 -32q-139 0 -139 123v1135q0 60 33 93.5t94 33.5h607q44 0 69 -28t25 -80q0 -53 -25 -81t-69 -28h-455v-376h376q43 0 68 -28t25 -80t-25 -79.5t-68 -27.5h-376z" />
    <glyph glyph-name="G" unicode="G" horiz-adv-x="1400" 
d="M1006 544h-189q-43 0 -67.5 28t-24.5 77q0 48 24.5 76t67.5 28h335q56 0 86.5 -30.5t30.5 -86.5v-408q0 -48 -13 -79t-43 -57q-49 -43 -159 -77.5t-269 -34.5q-326 0 -510 178.5t-184 495.5q0 340 199 541t552 201q134 0 233 -34.5t139 -74.5q39 -39 39 -95
q0 -44 -27.5 -71.5t-69.5 -27.5q-20 0 -50.5 12.5t-61.5 28t-92 28t-136 12.5q-201 0 -320 -127.5t-119 -361.5q0 -238 119 -365t328 -127q56 0 101.5 8t62.5 16l18 8v319z" />
    <glyph glyph-name="H" unicode="H" horiz-adv-x="1442" 
d="M444 590v-474q0 -123 -140 -123q-139 0 -139 123v1146q0 123 139 123q140 0 140 -123v-447h554v447q0 123 140 123q69 0 104 -32t35 -91v-1146q0 -123 -139 -123q-140 0 -140 123v474h-554z" />
    <glyph glyph-name="I" unicode="I" horiz-adv-x="608" 
d="M165 116v1146q0 123 139 123q140 0 140 -123v-1146q0 -123 -140 -123q-139 0 -139 123z" />
    <glyph glyph-name="J" unicode="J" horiz-adv-x="617" 
d="M173 119v1143q0 59 35 91t105 32q139 0 139 -123v-1082q0 -176 -33 -277t-104 -172q-56 -56 -123.5 -85.5t-132.5 -29.5q-59 0 -90.5 28t-31.5 74q0 63 56 93q37 20 60 36t48.5 42t39.5 55.5t23 74t9 100.5z" />
    <glyph glyph-name="K" unicode="K" horiz-adv-x="1221" 
d="M444 743l463 567q19 24 36 41q37 37 86 37q58 0 103 -39t45 -92q0 -43 -34 -81l-407 -452l407 -495q44 -52 44 -97q0 -56 -48.5 -99t-107.5 -43q-53 0 -88 35q-11 11 -41 49l-458 583v-541q0 -123 -140 -123q-139 0 -139 123v1146q0 123 139 123q140 0 140 -123v-519z
" />
    <glyph glyph-name="L" unicode="L" horiz-adv-x="1007" 
d="M444 224h445q46 0 72 -28.5t26 -83.5t-25.5 -83.5t-72.5 -28.5h-597q-61 0 -94 33.5t-33 93.5v1135q0 123 139 123q140 0 140 -123v-1038z" />
    <glyph glyph-name="M" unicode="M" horiz-adv-x="1874" 
d="M116 156l110 1039q10 93 55 138q52 52 164 52q95 0 145 -41.5t76 -127.5l224 -742q13 -44 25 -91.5t17 -72.5l6 -26h4q18 92 47 189l225 742q26 87 75.5 128.5t144.5 41.5q108 0 159 -51q45 -44 55 -139l110 -1037q4 -36 4 -56q0 -49 -42 -80.5t-104 -31.5q-66 0 -102 36
q-27 27 -34 110l-66 753q-4 48 -5 100.5t-1 80.5l1 28h-4l-280 -932q-29 -96 -64 -131q-42 -42 -129 -42q-89 0 -131 42q-32 32 -63 131l-281 933h-4q0 -99 -9 -209l-62 -754q-3 -30 -5 -44.5t-9.5 -34t-20.5 -32.5q-35 -35 -97 -35q-58 0 -98.5 29t-40.5 78q0 12 5 59z" />
    <glyph glyph-name="N" unicode="N" horiz-adv-x="1508" 
d="M165 104v1091q0 190 193 190q82 0 126.5 -34t93.5 -114l432 -703q27 -45 53.5 -96t39.5 -80l13 -28l5 2q-14 119 -17 244l-12 698q-2 52 31 81.5t95 29.5q61 0 93 -29t32 -82v-1090q0 -191 -193 -191q-83 0 -128 34t-93 114l-431 703q-27 45 -53.5 96t-40.5 80l-13 28
l-4 -2q14 -119 17 -244l12 -698q2 -52 -31 -81.5t-95 -29.5q-61 0 -93 29t-32 82z" />
    <glyph glyph-name="O" unicode="O" horiz-adv-x="1512" 
d="M91 670q0 339 185.5 534t492.5 195q297 0 474.5 -185t177.5 -506q0 -338 -185 -533t-492 -195q-297 0 -475 185t-178 505zM377 691q0 -232 108 -361t273 -129t271 127.5t106 358.5q0 232 -107.5 361t-273.5 129q-165 0 -271 -127.5t-106 -358.5z" />
    <glyph glyph-name="P" unicode="P" horiz-adv-x="1163" 
d="M442 495v-379q0 -123 -139 -123q-138 0 -138 123v1135q0 60 33 93.5t94 33.5h289q259 0 391.5 -113t132.5 -309q0 -214 -140 -337.5t-406 -123.5h-117zM442 705h132q118 0 183.5 62t65.5 172q0 226 -256 226h-125v-460z" />
    <glyph glyph-name="Q" unicode="Q" horiz-adv-x="1513" 
d="M91 670q0 339 185.5 534t492.5 195q297 0 474.5 -185t177.5 -506q0 -276 -125.5 -459t-343.5 -241q133 -187 454 -219q101 -11 101 -100q0 -58 -46.5 -93.5t-137.5 -35.5q-80 0 -167 26t-171 76t-157.5 133t-117.5 186q-282 10 -450.5 193.5t-168.5 495.5zM377 690
q0 -232 108 -361.5t273 -129.5t271 128t106 360t-107.5 361t-273.5 129q-165 0 -271 -127.5t-106 -359.5z" />
    <glyph glyph-name="R" unicode="R" horiz-adv-x="1221" 
d="M439 552v-436q0 -123 -137 -123t-137 123v1135q0 60 33 93.5t94 33.5h294q272 0 407 -106t135 -286q0 -139 -74 -237t-202 -141l258 -397q32 -49 32 -85q0 -56 -48.5 -96t-108.5 -40q-53 0 -88 35q-19 19 -42 58l-278 469h-138zM439 764h141q131 0 198 55.5t67 149.5
q0 197 -273 197h-133v-402z" />
    <glyph glyph-name="S" unicode="S" horiz-adv-x="1120" 
d="M110 991q0 181 131 293.5t372 112.5q115 0 198 -26t119 -62q37 -37 37 -90q0 -45 -26.5 -70.5t-69.5 -25.5q-25 0 -60 14.5t-88 29t-123 14.5q-106 0 -159.5 -42.5t-53.5 -114.5q0 -43 21.5 -75.5t58.5 -54.5t84.5 -40t100 -36.5t105 -39.5t100 -52.5t84.5 -72.5
t58.5 -103t21.5 -140q0 -193 -137 -310.5t-391 -117.5q-128 0 -217.5 27t-125.5 63q-39 39 -39 92q0 46 26.5 72t69.5 26q21 0 48 -10t53.5 -21.5t79.5 -21.5t118 -10q117 0 177 49t60 130q0 58 -35 99.5t-90.5 67t-123.5 48t-135.5 52.5t-123 70.5t-90.5 110.5t-35 165z
" />
    <glyph glyph-name="T" unicode="T" horiz-adv-x="1144" 
d="M433 1154h-315q-46 0 -71.5 28.5t-25.5 83.5t25.5 83.5t71.5 28.5h908q46 0 71.5 -28.5t25.5 -83.5t-25.5 -83.5t-71.5 -28.5h-315v-1038q0 -123 -139 -123t-139 123v1038z" />
    <glyph glyph-name="U" unicode="U" horiz-adv-x="1425" 
d="M153 535v727q0 59 35 91t105 32q139 0 139 -123v-691q0 -187 77.5 -277.5t210.5 -90.5q124 0 198.5 84.5t74.5 251.5v723q0 123 139 123q70 0 105 -32t35 -91v-695q0 -289 -147.5 -438t-419.5 -149q-270 0 -411 141t-141 414z" />
    <glyph glyph-name="V" unicode="V" horiz-adv-x="1242" 
d="M400 161l-340 1018q-19 56 -19 81q0 57 48.5 92.5t105.5 35.5q55 0 87 -32q20 -20 43 -93l253 -795q14 -45 27.5 -95.5t20.5 -78.5l6 -28h4q19 99 50 202l240 796q22 72 44 94q30 30 84 30q55 0 101 -32t46 -87q0 -22 -19 -79l-343 -1029q-26 -79 -64 -117
q-51 -51 -155 -51q-105 0 -156 51q-38 38 -64 117z" />
    <glyph glyph-name="W" unicode="W" horiz-adv-x="1960" 
d="M332 172l-258 1019q-13 53 -13 72q0 57 47 91t105 34q57 0 90 -33q12 -12 20.5 -29.5t11.5 -29.5t10 -41l188 -788q11 -48 20 -98t12 -76l3 -26h4q11 91 38 201l186 766q20 83 66.5 118.5t126.5 35.5t126.5 -36t66.5 -119l183 -763q11 -47 21 -98t14 -79l5 -28h4
q14 102 37 203l177 786q18 79 39 100q34 34 92 34q56 0 100 -32t44 -84q0 -19 -13 -71l-260 -1029q-23 -91 -60 -128q-51 -51 -159 -51q-103 0 -154 51q-33 33 -57 128l-179 735q-10 40 -19 88.5t-13 76.5l-4 28h-4q-13 -102 -35 -194l-179 -734q-24 -95 -57 -128
q-51 -51 -155 -51q-107 0 -158 51q-37 37 -60 128z" />
    <glyph glyph-name="X" unicode="X" horiz-adv-x="1222" 
d="M437 704l-312 415l-10.5 14l-10.5 14t-9 12.5t-8.5 13t-7 12.5t-6.5 13t-4 12.5t-3 14.5t-1 14q0 62 50 105.5t110 43.5q48 0 79 -31q23 -23 53 -66l277 -395l242 385q38 60 55 77q30 30 76 30q59 0 105 -38.5t46 -90.5q0 -7 -0.5 -13t-3 -12.5t-4 -11.5t-5.5 -12.5
t-6 -11t-8 -12.5t-8.5 -12t-10 -13.5t-9.5 -13.5l-319 -444l332 -444q3 -4 13.5 -17.5t13.5 -18t10.5 -15.5t10 -17t6.5 -15.5t5.5 -18.5t1.5 -18q0 -61 -50.5 -105t-110.5 -44q-47 0 -78 31q-22 22 -53 66l-297 425l-261 -415q-36 -58 -55 -77q-30 -30 -76 -30
q-59 0 -104.5 38.5t-45.5 90.5q0 18 7.5 37t13.5 28t26 38l6 9z" />
    <glyph glyph-name="Y" unicode="Y" horiz-adv-x="1149" 
d="M432 535l-361 604q-17 28 -23.5 41t-13 31.5t-6.5 35.5q0 61 50 101t106 40q49 0 81 -32q18 -18 52 -79l216 -384l53 -107h4q22 57 51 111l204 379q34 64 50 80q32 32 79 32q56 0 101.5 -38t45.5 -92q0 -16 -6 -34t-12 -29t-23 -40l-369 -620v-419q0 -123 -140 -123
q-139 0 -139 123v419z" />
    <glyph glyph-name="Z" unicode="Z" horiz-adv-x="1081" 
d="M410 224h511q47 0 72.5 -28.5t25.5 -83.5t-25.5 -83.5t-72.5 -28.5h-689q-77 0 -118.5 39.5t-41.5 110.5q0 55 57 148l532 856h-468q-46 0 -71.5 28.5t-25.5 83.5t25.5 83.5t71.5 28.5h647q76 0 117.5 -39.5t41.5 -110.5q0 -57 -56 -148z" />
    <glyph glyph-name="bracketleft" unicode="[" horiz-adv-x="675" 
d="M405 -160h136q39 0 61 -25.5t22 -72.5t-22 -72.5t-61 -25.5h-277q-51 0 -78.5 27.5t-27.5 78.5v1667q0 51 27.5 79t78.5 28h277q39 0 61 -25.5t22 -73.5q0 -47 -22 -72.5t-61 -25.5h-136v-1487z" />
    <glyph glyph-name="backslash" unicode="\" horiz-adv-x="882" 
d="M643 -235l-567 1553q-16 45 -16 64q0 47 41.5 78.5t93.5 31.5q45 0 67 -22.5t39 -70.5l567 -1553q15 -41 15 -64q0 -47 -41.5 -78.5t-92.5 -31.5q-45 0 -67 22.5t-39 70.5z" />
    <glyph glyph-name="bracketright" unicode="]" horiz-adv-x="675" 
d="M270 -160v1487h-135q-39 0 -61.5 25.5t-22.5 72.5q0 48 22.5 73.5t61.5 25.5h276q51 0 79 -28t28 -79v-1667q0 -51 -28 -78.5t-79 -27.5h-276q-39 0 -61.5 25.5t-22.5 72.5t22.5 72.5t61.5 25.5h135z" />
    <glyph glyph-name="asciicircum" unicode="^" horiz-adv-x="1168" 
d="M579 1119l-223 -354q-40 -65 -96 -65q-44 0 -76 30t-32 73q0 32 26 73l275 443q51 80 133 80q81 0 132 -80l270 -436q28 -43 28 -76q0 -44 -35.5 -75.5t-81.5 -31.5q-57 1 -97 64z" />
    <glyph glyph-name="underscore" unicode="_" horiz-adv-x="1168" 
d="M91 -304h986q43 0 67 -27t24 -78q0 -50 -24 -76.5t-67 -26.5h-986q-43 0 -67 26.5t-24 76.5q0 51 24 78t67 27z" />
    <glyph glyph-name="grave" unicode="`" 
d="M568 1164l-208 179q-2 2 -10 8.5t-10.5 9l-9 9t-9 11t-6 11t-5 13.5t-1.5 15q0 49 42 89t89 40q41 0 76 -45l174 -216q1 -1 5 -6t5.5 -6.5t4.5 -6t4 -6.5t3.5 -6t3.5 -6.5t2 -6.5t1.5 -7.5t0.5 -7.5q0 -35 -27.5 -62.5t-65.5 -27.5q-30 0 -59 25z" />
    <glyph glyph-name="a" unicode="a" horiz-adv-x="1126" 
d="M715 288v104q-64 19 -156 19q-197 0 -197 -110q0 -53 40 -87t111 -34q36 0 70 11t57 27t40.5 32t25.5 27zM715 566v83q0 97 -47.5 138.5t-162.5 41.5q-71 0 -129 -14.5t-95 -29.5t-57 -15q-37 0 -60 24t-23 66q0 43 31 74q38 38 146 70t248 32q208 0 313.5 -90
t105.5 -264v-327q0 -79 8.5 -133t17 -83.5t8.5 -49.5q0 -44 -31.5 -71.5t-88.5 -27.5q-114 0 -150 128h-3q-4 -6 -12 -15t-36 -32.5t-60 -41.5t-85.5 -33t-112.5 -15q-162 0 -257.5 87t-95.5 224q0 142 119.5 217t325.5 75q49 0 94.5 -4.5t67.5 -9.5z" />
    <glyph glyph-name="b" unicode="b" horiz-adv-x="1204" 
d="M147 183v1179q0 120 136 120t136 -120v-301q0 -71 -9 -154h3q4 5 11 14t33.5 31t57 39t81.5 31t106 14q193 0 305 -128t112 -372q0 -263 -149 -409.5t-420 -146.5q-142 0 -235.5 28.5t-127.5 62.5q-40 40 -40 112zM419 673v-450q6 -4 17.5 -10t51.5 -16t86 -10
q124 0 196 84.5t72 245.5q0 302 -208 302q-40 0 -77 -15t-61 -36.5t-42.5 -43t-26.5 -36.5z" />
    <glyph glyph-name="c" unicode="c" horiz-adv-x="940" 
d="M84 470q0 260 146.5 413t386.5 153q84 0 142 -20.5t85 -47.5q35 -34 35 -88q0 -40 -24 -66.5t-62 -26.5q-20 0 -72.5 20t-108.5 20q-109 0 -180 -86t-71 -242q0 -144 73.5 -225.5t192.5 -81.5q59 0 111.5 19t66.5 19q36 0 57.5 -25t21.5 -61q0 -47 -35 -84
q-34 -34 -104.5 -57t-173.5 -23q-222 0 -354.5 133t-132.5 357z" />
    <glyph glyph-name="d" unicode="d" horiz-adv-x="1204" 
d="M785 1130v232q0 120 136 120t136 -120v-1259q0 -55 -29 -84t-84 -29q-102 0 -119 97l-9 50h-3q-4 -6 -11.5 -16.5t-35.5 -37.5t-60.5 -47.5t-87.5 -37.5t-116 -17q-193 0 -305.5 128t-112.5 372q0 263 149 409.5t421 146.5q34 0 67 -4t49 -8l15 -4l3 1q-3 51 -3 108z
M785 344v452q-54 32 -156 32q-123 0 -195.5 -84t-72.5 -243q0 -303 209 -303q40 0 77 15t61 36.5t42.5 43t26.5 36.5z" />
    <glyph glyph-name="e" unicode="e" horiz-adv-x="1102" 
d="M881 452h-526v-2q11 -123 86.5 -190.5t201.5 -67.5q80 0 155 22.5t90 22.5q37 0 59 -24.5t22 -59.5q0 -46 -34 -80q-36 -36 -125 -64.5t-215 -28.5q-238 0 -374.5 133.5t-136.5 361.5q0 261 140 411.5t368 150.5q193 0 307.5 -117t114.5 -321q0 -147 -133 -147zM358 626
h403q-13 111 -61 164.5t-134 53.5q-77 0 -132 -53.5t-76 -164.5z" />
    <glyph glyph-name="f" unicode="f" horiz-adv-x="706" 
d="M193 814h-79q-41 0 -65 26.5t-24 75.5q0 48 24 74.5t65 26.5h79v86q0 182 102 286t279 104q121 0 171 -50q32 -32 32 -85q0 -42 -22 -67t-55 -25q-13 0 -46 10t-66 10q-62 0 -92.5 -41.5t-30.5 -131.5v-96h136q41 0 65 -26.5t24 -74.5q0 -49 -24 -75.5t-65 -26.5h-136
v-701q0 -120 -136 -120t-136 120v701z" />
    <glyph glyph-name="g" unicode="g" horiz-adv-x="1088" 
d="M985 1008l-94 -88q98 -93 98 -226q0 -168 -118 -271t-332 -103q-67 0 -121 15q-43 -35 -43 -79q0 -43 38 -64.5t137 -21.5h124q199 0 297 -75.5t98 -210.5q0 -162 -144.5 -269t-404.5 -107q-238 0 -354.5 84t-116.5 216q0 49 16.5 93t39.5 72t46 49.5t39 30.5l17 9
q-72 63 -72 157q0 52 26.5 99.5t52.5 69.5l26 22q-127 98 -127 252q0 167 118.5 270.5t332.5 103.5q86 0 163 -25l114 139q27 33 48 46t48 13q43 0 76.5 -31.5t33.5 -73.5q0 -24 -14 -43.5t-48 -52.5zM626 -24h-104q-68 0 -126 13q-3 -2 -8 -6t-18 -18t-22.5 -29.5
t-17.5 -39.5t-8 -49q0 -66 55.5 -106.5t165.5 -40.5q127 0 194 44.5t67 112.5q0 119 -178 119zM373 680q0 -79 48.5 -125.5t131.5 -46.5t130 45.5t47 122.5q0 79 -48.5 125.5t-132.5 46.5q-82 0 -129 -45.5t-47 -122.5z" />
    <glyph glyph-name="h" unicode="h" horiz-adv-x="1225" 
d="M147 113v1249q0 120 136 120t136 -120v-301q0 -71 -9 -154h3q4 5 11.5 14t34 31t57 39t81.5 31t107 14q179 0 281 -108.5t102 -307.5v-507q0 -120 -136 -120t-136 120v475q0 231 -183 231q-40 0 -76.5 -15t-60 -36.5t-42 -43t-26.5 -36.5l-8 -15v-560q0 -120 -136 -120
t-136 120z" />
    <glyph glyph-name="i" unicode="i" horiz-adv-x="565" 
d="M147 113v791q0 120 136 120t136 -120v-791q0 -120 -136 -120t-136 120zM120 1317q0 68 46 112t119 44q70 0 115.5 -44t45.5 -108q0 -67 -46 -111.5t-119 -44.5q-70 0 -115.5 44t-45.5 108z" />
    <glyph glyph-name="j" unicode="j" horiz-adv-x="568" 
d="M150 26v878q0 120 135 120q136 0 136 -120v-891q0 -258 -132 -388q-105 -105 -223 -105q-54 0 -86.5 27.5t-32.5 72.5q0 48 44 83q43 31 69 56.5t48.5 63t32 86.5t9.5 117zM122 1317q0 67 46 111.5t119 44.5q70 0 116 -44t46 -108q0 -67 -46.5 -111.5t-119.5 -44.5
q-70 0 -115.5 44t-45.5 108z" />
    <glyph glyph-name="k" unicode="k" horiz-adv-x="1076" 
d="M419 589l330 362q28 32 41 43q36 33 84 33q54 0 96 -38.5t42 -87.5q0 -44 -43 -87l-260 -253l282 -349q37 -45 37 -88q0 -56 -46.5 -95t-102.5 -39q-49 0 -85 36q-15 15 -39 47l-336 450v-410q0 -58 -34.5 -89t-101.5 -31t-101.5 31t-34.5 89v1249q0 120 136 120
t136 -120v-773z" />
    <glyph glyph-name="l" unicode="l" horiz-adv-x="613" 
d="M143 261v1101q0 120 136 120t136 -120v-1029q0 -74 18 -103.5t53 -29.5q10 0 25 1.5t22 1.5q28 0 47 -21t19 -57q0 -52 -32 -84q-52 -52 -166 -52q-258 0 -258 272z" />
    <glyph glyph-name="m" unicode="m" horiz-adv-x="1863" 
d="M147 113v801q0 55 29 84t84 29q104 0 119 -96l8 -51h4l11 16.5t34.5 37.5t59.5 47.5t86 37.5t114 17q224 0 320 -174q4 7 12.5 19t39 42t66 52.5t93.5 41.5t122 19q174 0 274.5 -108.5t100.5 -307.5v-507q0 -120 -136 -120t-136 120v475q0 231 -175 231q-38 0 -74 -15.5
t-59.5 -37.5t-41.5 -44.5t-26 -37.5l-8 -16q0 -4 1.5 -37t1.5 -57v-461q0 -120 -135 -120q-136 0 -136 120v475q0 231 -176 231q-38 0 -72.5 -15t-57.5 -36.5t-41 -43t-26 -36.5l-8 -15v-560q0 -120 -136 -120t-136 120z" />
    <glyph glyph-name="n" unicode="n" horiz-adv-x="1225" 
d="M147 113v801q0 55 29 84t84 29q105 0 119 -96l8 -51h4l11 16.5t35 37.5t60.5 47.5t88.5 37.5t118 17q179 0 281 -108.5t102 -307.5v-507q0 -120 -136 -120t-136 120v475q0 231 -183 231q-40 0 -76.5 -15t-60 -36.5t-42 -43t-26.5 -36.5l-8 -15v-560q0 -120 -136 -120
t-136 120z" />
    <glyph glyph-name="o" unicode="o" horiz-adv-x="1213" 
d="M84 491q0 256 143.5 401t391.5 145q230 0 369.5 -140t139.5 -371q0 -256 -143 -401t-391 -145q-230 0 -370 140t-140 371zM361 511q0 -153 70 -237.5t178 -84.5q107 0 175 82.5t68 235.5q0 152 -70 236.5t-177 84.5q-108 0 -176 -82t-68 -235z" />
    <glyph glyph-name="p" unicode="p" horiz-adv-x="1204" 
d="M147 -358v1272q0 55 29 84t84 29q105 0 119 -96l8 -51h4q4 6 11.5 16.5t35 37.5t60.5 47.5t88 37.5t116 17q193 0 305 -128t112 -372q0 -263 -149 -409.5t-420 -146.5q-34 0 -66.5 4t-48.5 8l-16 4l-3 -1q3 -51 3 -108v-245q0 -120 -136 -120t-136 120zM419 673v-454
q54 -32 155 -32q124 0 196 84.5t72 245.5q0 302 -208 302q-40 0 -77 -15t-61 -36.5t-42.5 -43t-26.5 -36.5z" />
    <glyph glyph-name="q" unicode="q" horiz-adv-x="1204" 
d="M785 -358v314q0 72 9 154h-3q-4 -5 -11 -14t-33.5 -31t-57 -39t-81.5 -31t-106 -14q-193 0 -305.5 128t-112.5 372q0 263 149 409.5t421 146.5q142 0 235.5 -28.5t127.5 -62.5q40 -40 40 -112v-1192q0 -120 -136 -120t-136 120zM785 344v452q-52 32 -156 32
q-123 0 -195.5 -84t-72.5 -243q0 -303 209 -303q40 0 77 15t61 36.5t42.5 43t26.5 36.5z" />
    <glyph glyph-name="r" unicode="r" horiz-adv-x="763" 
d="M147 113v801q0 55 29 84t84 29q102 0 119 -98l13 -73h3q39 82 102 131.5t139 49.5q119 0 119 -127q0 -73 -28.5 -116t-69.5 -43q-14 0 -37 7.5t-39 7.5q-45 0 -88 -41.5t-74 -101.5v-510q0 -120 -136 -120t-136 120z" />
    <glyph glyph-name="s" unicode="s" horiz-adv-x="952" 
d="M97 718q0 141 110 229.5t316 88.5q102 0 169 -20.5t96 -49.5q32 -32 32 -83q0 -38 -24 -62t-61 -24q-18 0 -89 21t-136 21q-76 0 -112 -24.5t-36 -64.5q0 -34 28 -58t72.5 -40t98.5 -31t108.5 -38t99 -54.5t72.5 -86t28 -127.5q0 -147 -116 -240.5t-332 -93.5t-291 75
q-32 32 -32 83q0 39 23.5 63.5t61.5 24.5q19 0 53.5 -12t85.5 -24t112 -12q87 0 128 28t41 75q0 31 -21.5 55t-57.5 38t-81.5 29.5t-92.5 29.5t-92.5 38t-81.5 54t-57.5 79.5t-21.5 112.5z" />
    <glyph glyph-name="t" unicode="t" horiz-adv-x="754" 
d="M190 814h-79q-41 0 -65 26.5t-24 75.5q0 48 24 74.5t65 26.5h88l32 169q20 111 123 111q52 0 80 -28.5t28 -82.5v-169h169q41 0 65 -26.5t24 -74.5q0 -49 -24 -75.5t-65 -26.5h-169v-481q0 -69 24 -100t74 -31q27 0 56 7t39 7q32 0 52.5 -22.5t20.5 -58.5q0 -49 -35 -84
q-25 -25 -77.5 -43.5t-129.5 -18.5q-151 0 -223.5 72t-72.5 222v531z" />
    <glyph glyph-name="u" unicode="u" horiz-adv-x="1221" 
d="M139 397v507q0 120 136 120t136 -120v-475q0 -231 178 -231q40 0 76.5 15t60 36.5t42 43t26.5 36.5l8 15v560q0 120 136 120t136 -120v-801q0 -55 -29 -84t-84 -29q-103 0 -119 97l-8 50h-4l-11 -16.5t-35 -37.5t-60.5 -47.5t-88.5 -37.5t-118 -17q-176 0 -277 108.5
t-101 307.5z" />
    <glyph glyph-name="v" unicode="v" horiz-adv-x="1061" 
d="M300 183l-237 637q-20 55 -20 82q0 56 47 90.5t104 34.5q53 0 84 -31q17 -17 42 -91l176 -511q12 -34 22 -69.5t14 -54.5l4 -18h4q16 67 41 142l172 516q22 68 40 86q31 31 83 31q55 0 99 -31.5t44 -83.5q0 -26 -18 -75l-242 -653q-40 -107 -74 -140q-49 -51 -156 -51
q-105 0 -155 50q-36 36 -74 140z" />
    <glyph glyph-name="w" unicode="w" horiz-adv-x="1683" 
d="M273 171l-194 659q-15 51 -15 79q0 54 47.5 86t101.5 32q57 0 88 -31q9 -9 17 -26t11.5 -30t12.5 -45l134 -502q10 -39 18 -77t10 -56l3 -19h4q9 66 32 152l126 476q23 86 63.5 122t118.5 36t118 -36t63 -122l127 -476q10 -38 18.5 -76t12.5 -57l3 -19h4q11 67 32 152
l125 503q1 3 3.5 13.5t3.5 13.5t3 11.5t3 11.5t3.5 10t4 10t3.5 8t4.5 8.5l5 7t5.5 6.5q31 31 87 31q54 0 96.5 -30t42.5 -80q0 -26 -15 -77l-195 -667q-27 -95 -64 -132q-48 -48 -146 -48t-144 46q-34 34 -62 139l-115 415q-11 40 -19.5 81.5t-11.5 63.5l-3 21h-4
q-8 -75 -33 -166l-116 -415q-29 -105 -62 -138q-47 -47 -145 -47q-100 0 -148 48q-36 36 -63 130z" />
    <glyph glyph-name="x" unicode="x" horiz-adv-x="1080" 
d="M368 512l-219 250q-5 5 -16 18t-15 18t-12.5 15t-11.5 16.5t-7.5 15t-6 17t-1.5 17.5q0 61 49.5 104.5t103.5 43.5q39 0 65 -23q15 -12 54 -60l210 -255l185 252q32 44 45 57q29 29 70 29q51 0 96 -39.5t45 -92.5q0 -20 -10.5 -40.5t-18 -29.5t-32.5 -37l-229 -262
l237 -271q3 -4 17.5 -20.5t18 -20.5t13 -17t12.5 -20t6 -18t3 -21q0 -60 -50 -104t-103 -44q-40 0 -67 24q-15 14 -53 59l-227 277l-201 -274q-36 -48 -45 -57q-29 -29 -71 -29q-50 0 -95 39t-45 93q0 8 1.5 15.5t3 13.5t6.5 14.5t7 12t10 13.5t9.5 12t12 13.5t11.5 13.5z
" />
    <glyph glyph-name="y" unicode="y" horiz-adv-x="1061" 
d="M381 -52l-318 872q-20 55 -20 82q0 56 47.5 90.5t103.5 34.5q52 0 82 -33q17 -18 41 -89l176 -527q12 -35 22.5 -74t14.5 -60l5 -22h4q17 78 42 156l173 533q22 67 39 85q28 31 83 31q54 0 98.5 -31.5t44.5 -83.5q0 -26 -18 -75l-259 -700q-122 -330 -265.5 -475
t-350.5 -145q-105 0 -152 47q-33 33 -33 83q0 41 25 66t68 25q19 0 47.5 -3.5t46.5 -3.5q80 0 141.5 54t111.5 163z" />
    <glyph glyph-name="z" unicode="z" horiz-adv-x="971" 
d="M140 270l406 544h-352q-41 0 -65 26.5t-24 75.5q0 48 24 74.5t65 26.5h533q77 0 116 -34.5t39 -98.5q0 -56 -61 -137l-406 -544h400q41 0 65 -26.5t24 -75.5q0 -48 -24 -74.5t-65 -26.5h-580q-77 0 -116 34.5t-39 98.5q0 57 60 137z" />
    <glyph glyph-name="braceleft" unicode="{" horiz-adv-x="729" 
d="M236 -28v262q0 173 -47 219q-24 24 -60 36.5t-47 23.5q-30 32 -30 86q0 55 30 85q12 12 48 24t59 36q47 47 47 220v213q0 173 81.5 263t228.5 90h4q133 0 133 -100q0 -40 -23.5 -65.5t-65.5 -25.5h-9q-54 0 -77 -30.5t-23 -114.5v-214q0 -165 -32.5 -242t-112.5 -124v-2
q54 -32 84 -72.5t45.5 -113t15.5 -189.5v-250q0 -90 25 -125t81 -35h9q41 0 62 -22.5t21 -61.5q0 -49 -37 -77.5t-112 -28.5h-4q-294 0 -294 335z" />
    <glyph glyph-name="bar" unicode="|" horiz-adv-x="650" 
d="M208 -376v1756q0 115 116 115q118 0 118 -115v-1756q0 -116 -118 -116q-116 0 -116 116z" />
    <glyph glyph-name="braceright" unicode="}" horiz-adv-x="729" 
d="M244 -28v245q0 165 33 242t113 124v2q-54 32 -84 72.5t-46 113.5t-16 190v219q0 90 -25.5 125t-81.5 35h-9q-40 0 -61 22t-21 61q0 50 37 78.5t112 28.5h4q294 0 294 -335v-231q0 -173 47 -220q24 -24 60 -36t47 -24q29 -29 29 -85q0 -55 -29 -86q-11 -11 -47 -23.5
t-60 -36.5q-47 -46 -47 -219v-244q0 -174 -81.5 -263.5t-228.5 -89.5h-4q-133 0 -133 100q0 40 23.5 65t64.5 25h9q55 0 78 30.5t23 114.5z" />
    <glyph glyph-name="asciitilde" unicode="~" horiz-adv-x="1168" 
d="M421 754q56 0 108 -20t84 -44.5t71 -44.5t73 -20q67 0 121 78q29 34 69 34q37 0 65 -26.5t28 -65.5q0 -23 -10 -46q-37 -82 -113.5 -132t-170.5 -50q-56 0 -108 20t-84 44.5t-71 44.5t-73 20q-68 0 -121 -77q-29 -35 -69 -35q-37 0 -65 27t-28 66q0 22 10 45
q37 82 113.5 132t170.5 50z" />
    <glyph glyph-name="uni00A0" unicode="&#xa0;" horiz-adv-x="526" 
 />
    <glyph glyph-name="exclamdown" unicode="&#xa1;" horiz-adv-x="650" 
d="M179 -164l24 715q2 44 32.5 69t89.5 25t89.5 -25t32.5 -69l24 -715q3 -111 3 -143q0 -50 -36 -79.5t-113 -29.5q-149 0 -149 109q0 32 3 143zM154 923q0 72 49 119t124 47t122 -45.5t47 -116.5t-49.5 -118.5t-123.5 -47.5q-75 0 -122 45.5t-47 116.5z" />
    <glyph glyph-name="cent" unicode="&#xa2;" horiz-adv-x="1032" 
d="M495 -72v207q-185 29 -287.5 150t-102.5 304q0 197 104 331.5t287 175.5v214q0 89 93 89t93 -89v-197q82 -4 140 -26t83 -47q35 -35 35 -89q0 -40 -24 -66.5t-62 -26.5q-20 0 -82.5 23t-123.5 23q-122 0 -194 -77.5t-72 -216.5q0 -125 74.5 -198t205.5 -73q65 0 125.5 21
t78.5 21q36 0 57.5 -25t21.5 -61q0 -48 -35 -83q-28 -28 -87 -51t-141 -31v-202q0 -89 -93 -89q-94 0 -94 89z" />
    <glyph glyph-name="sterling" unicode="&#xa3;" horiz-adv-x="1097" 
d="M270 604h-79q-43 0 -67 26.5t-24 73.5t24 74t67 27h41q-26 106 -26 163q0 180 136 300.5t363 120.5q87 0 148.5 -21t88.5 -48q36 -36 36 -88q0 -39 -26 -65.5t-64 -26.5q-20 0 -76 20.5t-112 20.5q-109 0 -167.5 -53.5t-58.5 -145.5q0 -16 1.5 -33.5t3 -28.5t5.5 -30.5
t5.5 -26t7.5 -30t7 -28.5h302q43 0 67.5 -27t24.5 -74t-24.5 -73.5t-67.5 -26.5h-265q17 -208 -115 -382l2 -3h510q43 0 67.5 -29.5t24.5 -79.5q0 -51 -24.5 -80.5t-67.5 -29.5h-679q-68 0 -106.5 36.5t-38.5 98.5q0 39 12.5 69.5t41.5 71.5q35 48 57 87.5t37.5 105.5
t7.5 135z" />
    <glyph glyph-name="currency" unicode="&#xa4;" horiz-adv-x="1077" 
d="M351 361l-90 -125q-32 -45 -72 -45q-38 0 -69.5 30t-31.5 67q0 31 31 64l102 107q-74 98 -74 241q0 149 77 248l-98 103q-32 34 -32 64q0 39 34 71.5t74 32.5q39 0 71 -45l87 -123q82 38 186 38q105 0 179 -37l91 127q30 44 72 44q38 0 69.5 -30t31.5 -67q0 -32 -32 -64
l-102 -108q74 -96 74 -238q0 -150 -76 -249l98 -104q31 -33 31 -63q0 -40 -34 -72.5t-74 -32.5q-39 0 -70 46l-87 122q-79 -38 -187 -38q-101 0 -179 36zM345 710q0 -108 54 -168.5t141 -60.5q86 0 139 59.5t53 165.5q0 107 -54.5 167.5t-141.5 60.5q-85 0 -138 -59
t-53 -165z" />
    <glyph glyph-name="yen" unicode="&#xa5;" horiz-adv-x="1247" 
d="M485 501h-213q-82 0 -82 80q0 79 82 79h176l-299 491q-36 62 -41 85q-3 12 -3 24q0 54 43 91t97 37q47 0 77 -30q17 -17 52 -80l207 -366q13 -23 26 -49.5t19 -41.5l7 -15h4q23 55 52 109l196 364q31 61 49 79q30 30 75 30q52 0 92.5 -35t40.5 -85q0 -17 -6.5 -35.5
t-13.5 -31t-24 -40.5l-305 -501h176q82 0 82 -79q0 -80 -82 -80h-213v-124h213q82 0 82 -80q0 -79 -82 -79h-212v-107q0 -118 -137 -118q-68 0 -102.5 30.5t-34.5 87.5v107h-211q-82 0 -82 79q0 80 82 80h213v124z" />
    <glyph glyph-name="brokenbar" unicode="&#xa6;" horiz-adv-x="650" 
d="M208 752v628q0 115 116 115q118 0 118 -115v-628q0 -115 -118 -115q-116 0 -116 115zM208 -376v641q0 116 116 116q118 0 118 -116v-641q0 -116 -118 -116q-116 0 -116 116z" />
    <glyph glyph-name="section" unicode="&#xa7;" horiz-adv-x="1147" 
d="M114 539q0 203 199 314q-94 87 -94 210q0 152 111.5 244t309.5 92q99 0 165.5 -21t95.5 -50q32 -32 32 -80q0 -37 -24 -61t-61 -24q-19 0 -88.5 21t-132.5 21q-145 0 -145 -110q0 -40 30.5 -73.5t79 -59.5t107 -53t117.5 -60.5t107.5 -74t79 -103t30.5 -139.5
q0 -203 -198 -312q93 -88 93 -212q0 -152 -111.5 -244t-309.5 -92q-99 0 -165.5 21t-95.5 50q-33 32 -33 81q0 36 24.5 60t61.5 24q19 0 88.5 -21t132.5 -21q145 0 145 110q0 40 -30.5 73.5t-79 59.5t-107 53t-117.5 60.5t-107.5 74t-79 103t-30.5 139.5zM381 571
q0 -22 6.5 -42t15.5 -35.5t27.5 -32t33 -27.5t41 -26.5t43 -24t49 -25t48.5 -24.5q120 61 120 165q0 22 -6.5 42t-15.5 35.5t-27.5 32.5t-32.5 28t-41.5 26.5t-43.5 23.5l-49 24.5t-48 24.5q-120 -60 -120 -165z" />
    <glyph glyph-name="dieresis" unicode="&#xa8;" 
d="M146 1315q0 63 43.5 106t108.5 43q66 0 107.5 -41t41.5 -104t-43.5 -106.5t-108.5 -43.5t-107 41t-42 105zM577 1315q0 63 43.5 106t109.5 43q65 0 106.5 -41t41.5 -104t-43 -106.5t-108 -43.5q-66 0 -108 41t-42 105z" />
    <glyph glyph-name="copyright" unicode="&#xa9;" horiz-adv-x="1618" 
d="M463 666q0 195 105.5 307.5t277.5 112.5q66 0 115 -17t71 -39q26 -26 26 -61q0 -29 -17 -47.5t-44 -18.5q-12 0 -55.5 18.5t-95.5 18.5q-85 0 -139 -66t-54 -189q0 -116 54 -177t147 -61q51 0 95.5 17.5t55.5 17.5q25 0 40 -17.5t15 -44.5q0 -34 -25 -59t-80 -43.5
t-131 -18.5q-166 0 -263.5 98.5t-97.5 268.5zM95 684q0 207 91 370t255 254t373 91q210 0 371 -88.5t249.5 -249t88.5 -367.5t-91 -370t-255 -253.5t-373 -90.5q-317 0 -513 195t-196 509zM272 689q0 -249 149 -401.5t388 -152.5t388.5 152t149.5 402t-149.5 402.5
t-388.5 152.5t-388 -152.5t-149 -402.5z" />
    <glyph glyph-name="ordfeminine" unicode="&#xaa;" horiz-adv-x="858" 
d="M530 894v69q-41 13 -100 13q-125 0 -125 -72q0 -35 25 -56.5t71 -21.5q37 0 69 17t46 34zM530 1075v57q0 60 -30.5 86.5t-106.5 26.5q-63 0 -120.5 -19.5t-67.5 -19.5q-25 0 -41.5 17t-16.5 46q0 30 22 52q26 26 99 47.5t168 21.5q283 0 283 -237v-212q0 -71 12.5 -120.5
t12.5 -58.5q0 -30 -22.5 -50t-63.5 -20q-77 0 -104 85h-2q-3 -4 -8 -10t-23.5 -21.5t-40 -27.5t-57.5 -21.5t-75 -9.5q-108 0 -172.5 58.5t-64.5 150.5t81 141.5t219 49.5q32 0 61.5 -3t43.5 -6zM159 590h548q37 0 57.5 -21t20.5 -58t-20.5 -57.5t-57.5 -20.5h-548
q-37 0 -57.5 20.5t-20.5 57.5t20.5 58t57.5 21z" />
    <glyph glyph-name="guillemotleft" unicode="&#xab;" horiz-adv-x="1239" 
d="M363 514l242 -280q36 -42 36 -76q0 -45 -36.5 -78t-84.5 -33q-46 0 -94 51l-292 308q-47 49 -47 102q0 52 46 103l295 310q49 52 91 52q47 0 82.5 -32.5t35.5 -76.5q0 -33 -37 -77zM883 514l225 -261q37 -43 37 -76q0 -45 -36.5 -77.5t-83.5 -32.5q-27 0 -46.5 11.5
t-46.5 39.5l-273 288q-47 49 -47 102t47 103l276 291q47 50 90 50q46 0 81 -31.5t35 -74.5q0 -16 -7 -32t-14.5 -26t-26.5 -33z" />
    <glyph glyph-name="logicalnot" unicode="&#xac;" horiz-adv-x="1168" 
d="M784 484h-544q-43 0 -68 27t-25 73t25 73t68 27h641q122 0 122 -123v-269q0 -116 -109 -116q-52 0 -81 29t-29 87v192z" />
    <glyph glyph-name="uni00AD" unicode="&#xad;" horiz-adv-x="937" 
d="M218 653h500q43 0 67 -27t24 -77q0 -51 -24 -78.5t-67 -27.5h-500q-42 0 -66.5 27.5t-24.5 78.5q0 50 24.5 77t66.5 27z" />
    <glyph glyph-name="registered" unicode="&#xae;" horiz-adv-x="981" 
d="M437 1040v-116q0 -46 -50 -46t-50 46v328q0 45 46 45h105q87 0 130 -33t43 -89q0 -42 -21.5 -71.5t-56.5 -42.5q15 -44 47 -76q8 -8 15.5 -14.5t14.5 -12.5t10 -8q13 -12 13 -30q0 -17 -14 -29.5t-38 -12.5q-39 0 -73 34q-40 40 -70 128h-51zM437 1116h52q68 0 68 53
q0 50 -72 50h-48v-103zM69 1083q0 181 118.5 296.5t307.5 115.5q188 0 302.5 -112t114.5 -292q0 -181 -118 -296.5t-308 -115.5q-188 0 -302.5 112t-114.5 292zM176 1087q0 -143 86 -229t229 -86t229 86t86 229t-86 229t-229 86t-229 -86t-86 -229z" />
    <glyph glyph-name="macron" unicode="&#xaf;" 
d="M252 1411h520q86 0 86 -96q0 -46 -22.5 -70.5t-63.5 -24.5h-520q-41 0 -63.5 24.5t-22.5 70.5q0 96 86 96z" />
    <glyph glyph-name="degree" unicode="&#xb0;" horiz-adv-x="861" 
d="M105 1191q0 130 92 217t237 87q146 0 233.5 -82.5t87.5 -213.5q0 -129 -92 -216t-237 -87q-146 0 -233.5 82.5t-87.5 212.5zM291 1195q0 -63 39 -102.5t100 -39.5t100 39.5t39 102.5t-39 102.5t-100 39.5t-100 -39.5t-39 -102.5z" />
    <glyph glyph-name="plusminus" unicode="&#xb1;" horiz-adv-x="1167" 
d="M474 664h-237q-43 0 -68 27t-25 73t25 72.5t68 26.5h237v229q0 57 29 86.5t81 29.5t81 -29.5t29 -86.5v-229h236q43 0 68.5 -26.5t25.5 -72.5t-25 -73t-69 -27h-236v-229q0 -57 -29 -86t-81 -29t-81 29t-29 86v229zM232 199h703q43 0 68.5 -26.5t25.5 -72.5t-25 -73
t-68 -27h-704q-43 0 -68 27t-25 73t25 72.5t68 26.5z" />
    <glyph glyph-name="two.superior" unicode="&#xb2;" horiz-adv-x="709" 
d="M299 795h269q33 0 51.5 -21t18.5 -62q0 -39 -18.5 -60.5t-51.5 -21.5h-409q-50 0 -78 27t-28 72q0 56 48 101l128 117q89 81 121.5 123t32.5 84q0 80 -101 80q-34 0 -75.5 -11t-55.5 -11q-27 0 -45 17.5t-18 46.5q0 33 25 58q24 24 84.5 41t142.5 17q133 0 202 -56.5
t69 -149.5q0 -83 -48.5 -148t-174.5 -169z" />
    <glyph glyph-name="three.superior" unicode="&#xb3;" horiz-adv-x="710" 
d="M288 765q59 0 89 23.5t30 61.5q0 43 -41.5 65t-151.5 22q-26 0 -37 11q-21 21 -21 63t21 63q11 11 37 11q93 0 130 22t37 63q0 68 -101 68q-36 0 -73.5 -10.5t-51.5 -10.5q-28 0 -45 17t-17 47q0 33 23 56q55 55 214 55q134 0 201 -52t67 -139q0 -110 -114 -165v-1
q142 -35 142 -181q0 -104 -85.5 -171t-240.5 -67q-150 0 -205 55q-24 24 -24 60q0 30 18.5 48.5t45.5 18.5q15 0 59 -16.5t94 -16.5z" />
    <glyph glyph-name="acute" unicode="&#xb4;" 
d="M332 1288l174 216q35 45 76 45q47 0 89 -40t42 -89q0 -8 -1.5 -15t-5 -13.5t-6 -11t-9 -11l-9 -9t-10.5 -9t-10 -8.5l-208 -179q-29 -25 -59 -25q-38 0 -65.5 27.5t-27.5 62.5q0 11 5.5 23t8.5 16t16 20z" />
    <glyph glyph-name="mu" unicode="&#xb5;" horiz-adv-x="1229" 
d="M147 -358v1262q0 120 136 120t136 -120v-475q0 -231 178 -231q40 0 76.5 15t60.5 36.5t42 43t26 36.5l9 15v560q0 120 136 120t136 -120v-801q0 -55 -29.5 -84t-84.5 -29q-101 0 -118 97l-9 50h-3q-4 -6 -10.5 -16.5t-31.5 -37.5t-53.5 -47.5t-75.5 -37.5t-98 -17
q-53 0 -96 14.5t-60 28.5l-17 15l-2 -2l16 -300q4 -66 4 -99q0 -116 -132 -116q-136 0 -136 120z" />
    <glyph glyph-name="mu" unicode="&#x3bc;" horiz-adv-x="1229" 
d="M147 -358v1262q0 120 136 120t136 -120v-475q0 -231 178 -231q40 0 76.5 15t60.5 36.5t42 43t26 36.5l9 15v560q0 120 136 120t136 -120v-801q0 -55 -29.5 -84t-84.5 -29q-101 0 -118 97l-9 50h-3q-4 -6 -10.5 -16.5t-31.5 -37.5t-53.5 -47.5t-75.5 -37.5t-98 -17
q-53 0 -96 14.5t-60 28.5l-17 15l-2 -2l16 -300q4 -66 4 -99q0 -116 -132 -116q-136 0 -136 120z" />
    <glyph glyph-name="paragraph" unicode="&#xb6;" horiz-adv-x="1304" 
d="M747 1180v-1399q0 -96 -101 -96q-100 0 -100 96v707q-206 0 -316.5 112.5t-110.5 323.5q0 224 130.5 339t406.5 115h346q59 0 90.5 -31.5t31.5 -91.5v-1474q0 -96 -100 -96q-101 0 -101 96v1399h-176z" />
    <glyph glyph-name="periodcentered" unicode="&#xb7;" horiz-adv-x="604" 
d="M132 546q0 75 49 124t123 49t121 -47t47 -121t-49 -123t-123 -49t-121 46.5t-47 120.5z" />
    <glyph glyph-name="cedilla" unicode="&#xb8;" 
d="M438 0h155l-24 -90q82 -8 130 -52t48 -120q0 -99 -79.5 -164.5t-223.5 -65.5q-80 0 -115.5 23.5t-35.5 60.5q0 27 16.5 44t44.5 17q9 0 29.5 -1.5t33.5 -1.5q121 0 121 72q0 56 -75 56h-25q-54 0 -39 61z" />
    <glyph glyph-name="one.superior" unicode="&#xb9;" horiz-adv-x="575" 
d="M230 1160l-61 -23q-35 -13 -53 -13q-34 0 -56 23t-22 57q0 32 25 57q30 30 145 81q98 44 141 44q45 0 71 -25t26 -69v-576q0 -44 -27.5 -68.5t-80.5 -24.5t-80.5 24.5t-27.5 68.5v444z" />
    <glyph glyph-name="ordmasculine" unicode="&#xba;" horiz-adv-x="905" 
d="M102 1026q0 171 95.5 267.5t263.5 96.5q155 0 249 -93.5t94 -247.5q0 -171 -96 -267.5t-264 -96.5q-155 0 -248.5 93.5t-93.5 247.5zM296 1038q0 -99 44.5 -152.5t113.5 -53.5t112 52.5t43 151.5q0 98 -44.5 152.5t-113.5 54.5q-68 0 -111.5 -53t-43.5 -152zM172 590h561
q37 0 57.5 -21t20.5 -58t-20.5 -57.5t-57.5 -20.5h-561q-37 0 -57.5 20.5t-20.5 57.5t20.5 58t57.5 21z" />
    <glyph glyph-name="guillemotright" unicode="&#xbb;" horiz-adv-x="1239" 
d="M875 503l-241 280q-37 43 -37 76q0 45 37 78t85 33q46 0 94 -51l292 -308q47 -49 47 -102t-47 -103l-295 -310q-47 -52 -91 -52q-47 0 -82.5 32.5t-35.5 76.5q0 32 38 77zM355 503l-225 261q-36 44 -36 76q0 45 36 77.5t83 32.5q27 0 47 -11.5t47 -39.5l273 -288
q47 -50 47 -102q0 -51 -47 -103l-276 -291q-48 -50 -91 -50q-45 0 -80 32t-35 74q0 16 7 32t14.5 26t26.5 33z" />
    <glyph glyph-name="onequarter" unicode="&#xbc;" horiz-adv-x="1610" 
d="M301 119l734 1229q29 50 75 50q37 0 67 -25t30 -60q0 -21 -19 -53l-734 -1229q-29 -50 -75 -50q-37 0 -67 24.5t-30 59.5q0 22 19 54zM230 1160l-61 -23q-35 -13 -53 -13q-34 0 -56 23t-22 57q0 32 25 57q30 30 145 81q98 44 141 44q45 0 71 -25t26 -69v-576
q0 -44 -27.5 -68.5t-80.5 -24.5t-80.5 24.5t-27.5 68.5v444zM1227 181h-239q-61 0 -92.5 29t-31.5 81q0 50 40 103l209 279q35 48 75 67t104 19q72 0 104.5 -24.5t32.5 -76.5v-323h59q63 0 63 -77t-63 -77h-59v-99q0 -89 -101 -89t-101 89v99zM1227 335v251l-187 -251h187z
" />
    <glyph glyph-name="onehalf" unicode="&#xbd;" horiz-adv-x="1633" 
d="M300 119l734 1229q29 50 75 50q37 0 67 -25t30 -60q0 -21 -19 -53l-734 -1229q-29 -50 -75 -50q-37 0 -67 24.5t-30 59.5q0 22 19 54zM230 1160l-61 -23q-35 -13 -53 -13q-34 0 -56 23t-22 57q0 32 25 57q30 30 145 81q98 44 141 44q45 0 71 -25t26 -69v-576
q0 -44 -27.5 -68.5t-80.5 -24.5t-80.5 24.5t-27.5 68.5v444zM1223 165h269q33 0 51.5 -21t18.5 -62q0 -39 -18.5 -60.5t-51.5 -21.5h-409q-50 0 -78 27t-28 72q0 56 48 101l128 117q89 81 121.5 123t32.5 84q0 80 -101 80q-34 0 -75.5 -11t-55.5 -11q-27 0 -45 17.5
t-18 46.5q0 33 25 58q24 24 84.5 41t142.5 17q133 0 202 -56.5t69 -149.5q0 -83 -48.5 -148t-174.5 -169z" />
    <glyph glyph-name="threequarters" unicode="&#xbe;" horiz-adv-x="1715" 
d="M406 119l734 1229q29 50 75 50q37 0 67 -25t30 -60q0 -21 -19 -53l-734 -1229q-29 -50 -75 -50q-37 0 -67 24.5t-30 59.5q0 22 19 54zM1333 181h-239q-61 0 -92.5 29t-31.5 81q0 50 40 103l209 279q35 48 75 67t104 19q72 0 104.5 -24.5t32.5 -76.5v-323h59q63 0 63 -77
t-63 -77h-59v-99q0 -89 -101 -89t-101 89v99zM1333 335v251l-187 -251h187zM288 765q59 0 89 23.5t30 61.5q0 43 -41.5 65t-151.5 22q-26 0 -37 11q-21 21 -21 63t21 63q11 11 37 11q93 0 130 22t37 63q0 68 -101 68q-36 0 -73.5 -10.5t-51.5 -10.5q-28 0 -45 17t-17 47
q0 33 23 56q55 55 214 55q134 0 201 -52t67 -139q0 -110 -114 -165v-1q142 -35 142 -181q0 -104 -85.5 -171t-240.5 -67q-150 0 -205 55q-24 24 -24 60q0 30 18.5 48.5t45.5 18.5q15 0 59 -16.5t94 -16.5z" />
    <glyph glyph-name="questiondown" unicode="&#xbf;" horiz-adv-x="808" 
d="M351 444q0 37 -7.5 70t-7.5 44q0 40 33 63.5t96 23.5q74 0 115.5 -49.5t41.5 -149.5q0 -72 -31 -134t-75 -106.5t-88.5 -85.5t-75.5 -88.5t-31 -98.5q0 -69 47 -108t144 -39q66 0 122.5 18t73.5 18q38 0 60.5 -23t22.5 -61q0 -44 -32 -76q-37 -37 -118.5 -62.5
t-188.5 -25.5q-204 0 -308 88.5t-104 241.5q0 67 23 126.5t57.5 99.5t75 80.5t75 72.5t57.5 74.5t23 86.5zM285 923q0 72 49 119t124 47t122 -45.5t47 -116.5t-49.5 -118.5t-124.5 -47.5q-74 0 -121 45.5t-47 116.5z" />
    <glyph glyph-name="Agrave" unicode="&#xc0;" horiz-adv-x="1293" 
d="M386 324l-67 -206q-25 -76 -46 -97q-31 -31 -87 -31q-55 0 -100 33t-45 85q0 22 20 81l351 1009q32 91 74 133q53 53 160 53t160 -53q42 -42 74 -133l352 -1004q19 -53 19 -80q0 -57 -47 -90.5t-105 -33.5q-57 0 -91 34q-21 21 -45 93l-71 207h-506zM448 537h378
l-131 394l-61 200h-4q-23 -92 -57 -200zM638 1495l-265 149q-55 31 -55 76q0 50 38 97t86 47q30 0 60 -26l237 -196q39 -32 39 -64q0 -37 -26.5 -67.5t-63.5 -30.5q-22 0 -50 15z" />
    <glyph glyph-name="Aacute" unicode="&#xc1;" horiz-adv-x="1293" 
d="M386 324l-67 -206q-25 -76 -46 -97q-31 -31 -87 -31q-55 0 -100 33t-45 85q0 22 20 81l351 1009q32 91 74 133q53 53 160 53t160 -53q42 -42 74 -133l352 -1004q19 -53 19 -80q0 -57 -47 -90.5t-105 -33.5q-57 0 -91 34q-21 21 -45 93l-71 207h-506zM448 537h378
l-131 394l-61 200h-4q-23 -92 -57 -200zM521 1642l237 196q30 26 60 26q48 0 86 -47t38 -97q0 -45 -55 -76l-265 -149q-28 -15 -50 -15q-37 0 -63.5 30.5t-26.5 67.5q0 32 39 64z" />
    <glyph glyph-name="Acircumflex" unicode="&#xc2;" horiz-adv-x="1293" 
d="M386 324l-67 -206q-25 -76 -46 -97q-31 -31 -87 -31q-55 0 -100 33t-45 85q0 22 20 81l351 1009q32 91 74 133q53 53 160 53t160 -53q42 -42 74 -133l352 -1004q19 -53 19 -80q0 -57 -47 -90.5t-105 -33.5q-57 0 -91 34q-21 21 -45 93l-71 207h-506zM448 537h378
l-131 394l-61 200h-4q-23 -92 -57 -200zM627 1631l-190 -127q-30 -20 -53 -20q-33 0 -57.5 25.5t-24.5 58.5q0 32 39 68l188 171q52 47 108 47q58 0 107 -46l184 -172q33 -30 33 -60q0 -37 -27 -63.5t-61 -26.5q-27 0 -56 20z" />
    <glyph glyph-name="Atilde" unicode="&#xc3;" horiz-adv-x="1293" 
d="M386 324l-67 -206q-25 -76 -46 -97q-31 -31 -87 -31q-55 0 -100 33t-45 85q0 22 20 81l351 1009q32 91 74 133q53 53 160 53t160 -53q42 -42 74 -133l352 -1004q19 -53 19 -80q0 -57 -47 -90.5t-105 -33.5q-57 0 -91 34q-21 21 -45 93l-71 207h-506zM448 537h378
l-131 394l-61 200h-4q-23 -92 -57 -200zM490 1605q-28 0 -50.5 -12.5t-34.5 -27t-31 -27t-40 -12.5q-34 0 -55.5 21t-21.5 61q0 65 71.5 130t177.5 65q46 0 91 -15t74.5 -33.5t63.5 -33.5t61 -15q28 0 50.5 12.5t34.5 27.5t31 27.5t40 12.5q34 0 55.5 -21t21.5 -61
q0 -65 -71.5 -130t-177.5 -65q-58 0 -113 24t-100 48t-77 24z" />
    <glyph glyph-name="Adieresis" unicode="&#xc4;" horiz-adv-x="1293" 
d="M386 324l-67 -206q-25 -76 -46 -97q-31 -31 -87 -31q-55 0 -100 33t-45 85q0 22 20 81l351 1009q32 91 74 133q53 53 160 53t160 -53q42 -42 74 -133l352 -1004q19 -53 19 -80q0 -57 -47 -90.5t-105 -33.5q-57 0 -91 34q-21 21 -45 93l-71 207h-506zM448 537h378
l-131 394l-61 200h-4q-23 -92 -57 -200zM256 1656q0 65 43.5 108t109.5 43q67 0 108.5 -41t41.5 -106q0 -64 -43.5 -108t-109.5 -44t-108 42t-42 106zM713 1656q0 65 44 108t110 43t107.5 -41t41.5 -106q0 -64 -43.5 -108t-108.5 -44q-66 0 -108.5 42t-42.5 106z" />
    <glyph glyph-name="Aring" unicode="&#xc5;" horiz-adv-x="1293" 
d="M386 324l-67 -206q-25 -76 -46 -97q-31 -31 -87 -31q-55 0 -100 33t-45 85q0 22 20 81l351 1009q32 91 74 133q53 53 160 53t160 -53q42 -42 74 -133l352 -1004q19 -53 19 -80q0 -57 -47 -90.5t-105 -33.5q-57 0 -91 34q-21 21 -45 93l-71 207h-506zM448 537h378
l-131 394l-61 200h-4q-23 -92 -57 -200zM357 1721q0 106 80.5 177t203.5 71t199.5 -67t76.5 -173q0 -107 -80.5 -177.5t-203.5 -70.5t-199.5 66.5t-76.5 173.5zM518 1725q0 -52 33 -84t86 -32t86 32t33 84t-33 83.5t-86 31.5t-86 -31.5t-33 -83.5z" />
    <glyph glyph-name="AE" unicode="&#xc6;" horiz-adv-x="1775" 
d="M401 324l-120 -212q-37 -66 -58 -87q-35 -35 -87 -35q-53 0 -94.5 34t-41.5 90q0 25 9 47t33 65l595 1039q37 64 78 88.5t115 24.5h768q44 0 69.5 -28t25.5 -80q0 -53 -25.5 -81t-69.5 -28h-465v-351h397q43 0 68 -27.5t25 -78.5q0 -52 -25 -79.5t-68 -27.5h-397v-380
h470q44 0 69 -28t25 -81q0 -52 -25 -80t-69 -28h-622q-60 0 -93.5 33.5t-33.5 93.5v197h-453zM509 537h345v624h-3z" />
    <glyph glyph-name="Ccedilla" unicode="&#xc7;" horiz-adv-x="1189" 
d="M540 -161l38 157q-219 41 -353 210.5t-134 436.5q0 346 184 549.5t484 203.5q115 0 197.5 -29.5t119.5 -66.5q40 -40 40 -97q0 -43 -27 -71t-69 -28q-22 0 -55.5 17t-87 34.5t-124.5 17.5q-78 0 -145 -31.5t-119 -92t-82 -157t-30 -218.5q0 -221 108 -343.5t282 -122.5
q69 0 123.5 17t89.5 33.5t56 16.5q36 0 60 -26.5t24 -66.5q0 -51 -39 -90q-43 -43 -135.5 -75.5t-216.5 -32.5l-19 -74q81 -8 129.5 -52t48.5 -120q0 -99 -80 -164.5t-223 -65.5q-80 0 -115.5 23.5t-35.5 60.5q0 28 16 44.5t45 16.5q9 0 29.5 -1.5t33.5 -1.5q121 0 121 72
q0 56 -75 56h-26q-53 0 -38 61z" />
    <glyph glyph-name="Egrave" unicode="&#xc8;" horiz-adv-x="1086" 
d="M444 597v-380h470q44 0 69 -28t25 -81q0 -52 -25 -80t-69 -28h-622q-61 0 -94 33.5t-33 93.5v1124q0 60 33 93.5t94 33.5h617q44 0 69.5 -28t25.5 -80q0 -53 -25.5 -81t-69.5 -28h-465v-351h397q43 0 68 -27.5t25 -79.5q0 -51 -25 -78.5t-68 -27.5h-397zM568 1495
l-265 149q-55 31 -55 76q0 50 38 97t86 47q30 0 60 -26l237 -196q39 -32 39 -64q0 -37 -26.5 -67.5t-63.5 -30.5q-22 0 -50 15z" />
    <glyph glyph-name="Eacute" unicode="&#xc9;" horiz-adv-x="1086" 
d="M444 597v-380h470q44 0 69 -28t25 -81q0 -52 -25 -80t-69 -28h-622q-61 0 -94 33.5t-33 93.5v1124q0 60 33 93.5t94 33.5h617q44 0 69.5 -28t25.5 -80q0 -53 -25.5 -81t-69.5 -28h-465v-351h397q43 0 68 -27.5t25 -79.5q0 -51 -25 -78.5t-68 -27.5h-397zM492 1642
l237 196q30 26 60 26q48 0 86 -47t38 -97q0 -45 -55 -76l-265 -149q-28 -15 -50 -15q-37 0 -63.5 30.5t-26.5 67.5q0 32 39 64z" />
    <glyph glyph-name="Ecircumflex" unicode="&#xca;" horiz-adv-x="1086" 
d="M444 597v-380h470q44 0 69 -28t25 -81q0 -52 -25 -80t-69 -28h-622q-61 0 -94 33.5t-33 93.5v1124q0 60 33 93.5t94 33.5h617q44 0 69.5 -28t25.5 -80q0 -53 -25.5 -81t-69.5 -28h-465v-351h397q43 0 68 -27.5t25 -79.5q0 -51 -25 -78.5t-68 -27.5h-397zM573 1631
l-190 -127q-30 -20 -53 -20q-33 0 -57.5 25.5t-24.5 58.5q0 32 39 68l188 171q52 47 108 47q58 0 107 -46l184 -172q33 -30 33 -60q0 -37 -27 -63.5t-61 -26.5q-27 0 -56 20z" />
    <glyph glyph-name="Edieresis" unicode="&#xcb;" horiz-adv-x="1086" 
d="M444 597v-380h470q44 0 69 -28t25 -81q0 -52 -25 -80t-69 -28h-622q-61 0 -94 33.5t-33 93.5v1124q0 60 33 93.5t94 33.5h617q44 0 69.5 -28t25.5 -80q0 -53 -25.5 -81t-69.5 -28h-465v-351h397q43 0 68 -27.5t25 -79.5q0 -51 -25 -78.5t-68 -27.5h-397zM198 1656
q0 65 43.5 108t109.5 43q67 0 108.5 -41t41.5 -106q0 -64 -43.5 -108t-109.5 -44t-108 42t-42 106zM655 1656q0 65 44 108t110 43t107.5 -41t41.5 -106q0 -64 -43.5 -108t-108.5 -44q-66 0 -108.5 42t-42.5 106z" />
    <glyph glyph-name="Igrave" unicode="&#xcc;" horiz-adv-x="608" 
d="M165 116v1146q0 123 139 123q140 0 140 -123v-1146q0 -123 -140 -123q-139 0 -139 123zM320 1495l-265 149q-55 31 -55 76q0 50 38 97t86 47q30 0 60 -26l237 -196q39 -32 39 -64q0 -37 -26.5 -67.5t-63.5 -30.5q-22 0 -50 15z" />
    <glyph glyph-name="Iacute" unicode="&#xcd;" horiz-adv-x="608" 
d="M165 116v1146q0 123 139 123q140 0 140 -123v-1146q0 -123 -140 -123q-139 0 -139 123zM174 1642l237 196q30 26 60 26q48 0 86 -47t38 -97q0 -45 -55 -76l-265 -149q-28 -15 -50 -15q-37 0 -63.5 30.5t-26.5 67.5q0 32 39 64z" />
    <glyph glyph-name="Icircumflex" unicode="&#xce;" horiz-adv-x="608" 
d="M165 116v1146q0 123 139 123q140 0 140 -123v-1146q0 -123 -140 -123q-139 0 -139 123zM299 1631l-190 -127q-30 -20 -53 -20q-33 0 -57.5 25.5t-24.5 58.5q0 32 39 68l188 171q52 47 108 47q58 0 107 -46l184 -172q33 -30 33 -60q0 -37 -27 -63.5t-61 -26.5
q-27 0 -56 20z" />
    <glyph glyph-name="Idieresis" unicode="&#xcf;" horiz-adv-x="608" 
d="M165 116v1146q0 123 139 123q140 0 140 -123v-1146q0 -123 -140 -123q-139 0 -139 123zM-74 1656q0 65 43.5 108t109.5 43q67 0 108.5 -41t41.5 -106q0 -64 -43.5 -108t-109.5 -44t-108 42t-42 106zM383 1656q0 65 44 108t110 43t107.5 -41t41.5 -106q0 -64 -43.5 -108
t-108.5 -44q-66 0 -108.5 42t-42.5 106z" />
    <glyph glyph-name="Eth" unicode="&#xd0;" horiz-adv-x="1457" 
d="M203 618h-80q-40 0 -63.5 26.5t-23.5 73.5t23.5 72t63.5 25h80v436q0 60 33 93.5t94 33.5h335q340 0 522 -173.5t182 -485.5q0 -337 -194 -528t-539 -191h-306q-61 0 -94 33.5t-33 93.5v491zM482 618v-403h168q203 0 318 124.5t115 358.5q0 465 -433 465h-168v-348h200
q40 0 63.5 -25.5t23.5 -72.5t-23.5 -73t-63.5 -26h-200z" />
    <glyph glyph-name="Ntilde" unicode="&#xd1;" horiz-adv-x="1508" 
d="M165 104v1091q0 190 193 190q82 0 126.5 -34t93.5 -114l432 -703q27 -45 53.5 -96t39.5 -80l13 -28l5 2q-14 119 -17 244l-12 698q-2 52 31 81.5t95 29.5q61 0 93 -29t32 -82v-1090q0 -191 -193 -191q-83 0 -128 34t-93 114l-431 703q-27 45 -53.5 96t-40.5 80l-13 28
l-4 -2q14 -119 17 -244l12 -698q2 -52 -31 -81.5t-95 -29.5q-61 0 -93 29t-32 82zM604 1605q-28 0 -50.5 -12.5t-34.5 -27t-31 -27t-40 -12.5q-34 0 -55.5 21t-21.5 61q0 65 71.5 130t177.5 65q46 0 91 -15t74.5 -33.5t63.5 -33.5t61 -15q28 0 50.5 12.5t34.5 27.5t31 27.5
t40 12.5q34 0 55.5 -21t21.5 -61q0 -65 -71.5 -130t-177.5 -65q-58 0 -113 24t-100 48t-77 24z" />
    <glyph glyph-name="Ograve" unicode="&#xd2;" horiz-adv-x="1512" 
d="M91 670q0 339 185.5 534t492.5 195q297 0 474.5 -185t177.5 -506q0 -338 -185 -533t-492 -195q-297 0 -475 185t-178 505zM377 691q0 -232 108 -361t273 -129t271 127.5t106 358.5q0 232 -107.5 361t-273.5 129q-165 0 -271 -127.5t-106 -358.5zM739 1495l-265 149
q-55 31 -55 76q0 50 38 97t86 47q30 0 60 -26l237 -196q39 -32 39 -64q0 -37 -26.5 -67.5t-63.5 -30.5q-22 0 -50 15z" />
    <glyph glyph-name="Oacute" unicode="&#xd3;" horiz-adv-x="1512" 
d="M91 670q0 339 185.5 534t492.5 195q297 0 474.5 -185t177.5 -506q0 -338 -185 -533t-492 -195q-297 0 -475 185t-178 505zM377 691q0 -232 108 -361t273 -129t271 127.5t106 358.5q0 232 -107.5 361t-273.5 129q-165 0 -271 -127.5t-106 -358.5zM651 1642l237 196
q30 26 60 26q48 0 86 -47t38 -97q0 -45 -55 -76l-265 -149q-28 -15 -50 -15q-37 0 -63.5 30.5t-26.5 67.5q0 32 39 64z" />
    <glyph glyph-name="Ocircumflex" unicode="&#xd4;" horiz-adv-x="1512" 
d="M91 670q0 339 185.5 534t492.5 195q297 0 474.5 -185t177.5 -506q0 -338 -185 -533t-492 -195q-297 0 -475 185t-178 505zM377 691q0 -232 108 -361t273 -129t271 127.5t106 358.5q0 232 -107.5 361t-273.5 129q-165 0 -271 -127.5t-106 -358.5zM754 1631l-190 -127
q-30 -20 -53 -20q-33 0 -57.5 25.5t-24.5 58.5q0 32 39 68l188 171q52 47 108 47q58 0 107 -46l184 -172q33 -30 33 -60q0 -37 -27 -63.5t-61 -26.5q-27 0 -56 20z" />
    <glyph glyph-name="Otilde" unicode="&#xd5;" horiz-adv-x="1512" 
d="M91 670q0 339 185.5 534t492.5 195q297 0 474.5 -185t177.5 -506q0 -338 -185 -533t-492 -195q-297 0 -475 185t-178 505zM377 691q0 -232 108 -361t273 -129t271 127.5t106 358.5q0 232 -107.5 361t-273.5 129q-165 0 -271 -127.5t-106 -358.5zM602 1605
q-28 0 -50.5 -12.5t-34.5 -27t-31 -27t-40 -12.5q-34 0 -55.5 21t-21.5 61q0 65 71.5 130t177.5 65q46 0 91 -15t74.5 -33.5t63.5 -33.5t61 -15q28 0 50.5 12.5t34.5 27.5t31 27.5t40 12.5q34 0 55.5 -21t21.5 -61q0 -65 -71.5 -130t-177.5 -65q-58 0 -113 24t-100 48
t-77 24z" />
    <glyph glyph-name="Odieresis" unicode="&#xd6;" horiz-adv-x="1512" 
d="M91 670q0 339 185.5 534t492.5 195q297 0 474.5 -185t177.5 -506q0 -338 -185 -533t-492 -195q-297 0 -475 185t-178 505zM377 691q0 -232 108 -361t273 -129t271 127.5t106 358.5q0 232 -107.5 361t-273.5 129q-165 0 -271 -127.5t-106 -358.5zM376 1656q0 65 43.5 108
t109.5 43q67 0 108.5 -41t41.5 -106q0 -64 -43.5 -108t-109.5 -44t-108 42t-42 106zM833 1656q0 65 44 108t110 43t107.5 -41t41.5 -106q0 -64 -43.5 -108t-108.5 -44q-66 0 -108.5 42t-42.5 106z" />
    <glyph glyph-name="multiply" unicode="&#xd7;" horiz-adv-x="1168" 
d="M442 578l-228 229q-37 35 -37 72q0 43 34 76.5t76 33.5q36 0 72 -36l229 -230l224 225q38 38 74 38q41 0 72 -31t31 -71q0 -34 -38 -74l-225 -225l228 -228q37 -37 37 -73q0 -42 -34 -76t-76 -34q-36 0 -72 36l-229 230l-224 -224q-39 -39 -74 -39q-40 0 -71.5 31
t-31.5 71q0 37 38 75z" />
    <glyph glyph-name="Oslash" unicode="&#xd8;" horiz-adv-x="1544" 
d="M521 18l-78 -140q-27 -49 -44 -66q-22 -22 -59 -22q-44 0 -80.5 29.5t-36.5 71.5q0 24 33 84l75 136q-240 188 -240 559q0 340 187.5 534.5t505.5 194.5q131 0 240 -38l78 139q31 54 43 66q22 22 60 22q43 0 80 -29.5t37 -71.5q0 -4 -0.5 -8.5t-1.5 -8.5t-3 -9t-3.5 -8.5
t-5 -10.5l-5.5 -11t-7 -13.5t-8 -14.5l-74 -136q116 -87 177 -232t61 -327q0 -339 -187.5 -533.5t-504.5 -194.5q-132 0 -239 38zM466 346l450 811q-64 30 -146 30q-182 0 -294.5 -130t-112.5 -366q0 -217 103 -345zM1079 1034l-450 -813q62 -29 145 -29q182 0 294.5 129.5
t112.5 365.5q0 218 -102 347z" />
    <glyph glyph-name="Ugrave" unicode="&#xd9;" horiz-adv-x="1425" 
d="M153 535v727q0 59 35 91t105 32q139 0 139 -123v-691q0 -187 77.5 -277.5t210.5 -90.5q124 0 198.5 84.5t74.5 251.5v723q0 123 139 123q70 0 105 -32t35 -91v-695q0 -289 -147.5 -438t-419.5 -149q-270 0 -411 141t-141 414zM671 1495l-265 149q-55 31 -55 76
q0 50 38 97t86 47q30 0 60 -26l237 -196q39 -32 39 -64q0 -37 -26.5 -67.5t-63.5 -30.5q-22 0 -50 15z" />
    <glyph glyph-name="Uacute" unicode="&#xda;" horiz-adv-x="1425" 
d="M153 535v727q0 59 35 91t105 32q139 0 139 -123v-691q0 -187 77.5 -277.5t210.5 -90.5q124 0 198.5 84.5t74.5 251.5v723q0 123 139 123q70 0 105 -32t35 -91v-695q0 -289 -147.5 -438t-419.5 -149q-270 0 -411 141t-141 414zM642 1642l237 196q30 26 60 26q48 0 86 -47
t38 -97q0 -45 -55 -76l-265 -149q-28 -15 -50 -15q-37 0 -63.5 30.5t-26.5 67.5q0 32 39 64z" />
    <glyph glyph-name="Ucircumflex" unicode="&#xdb;" horiz-adv-x="1425" 
d="M153 535v727q0 59 35 91t105 32q139 0 139 -123v-691q0 -187 77.5 -277.5t210.5 -90.5q124 0 198.5 84.5t74.5 251.5v723q0 123 139 123q70 0 105 -32t35 -91v-695q0 -289 -147.5 -438t-419.5 -149q-270 0 -411 141t-141 414zM711 1631l-190 -127q-30 -20 -53 -20
q-33 0 -57.5 25.5t-24.5 58.5q0 32 39 68l188 171q52 47 108 47q58 0 107 -46l184 -172q33 -30 33 -60q0 -37 -27 -63.5t-61 -26.5q-27 0 -56 20z" />
    <glyph glyph-name="Udieresis" unicode="&#xdc;" horiz-adv-x="1425" 
d="M153 535v727q0 59 35 91t105 32q139 0 139 -123v-691q0 -187 77.5 -277.5t210.5 -90.5q124 0 198.5 84.5t74.5 251.5v723q0 123 139 123q70 0 105 -32t35 -91v-695q0 -289 -147.5 -438t-419.5 -149q-270 0 -411 141t-141 414zM335 1656q0 65 43.5 108t109.5 43
q67 0 108.5 -41t41.5 -106q0 -64 -43.5 -108t-109.5 -44t-108 42t-42 106zM792 1656q0 65 44 108t110 43t107.5 -41t41.5 -106q0 -64 -43.5 -108t-108.5 -44q-66 0 -108.5 42t-42.5 106z" />
    <glyph glyph-name="Yacute" unicode="&#xdd;" horiz-adv-x="1149" 
d="M432 535l-361 604q-17 28 -23.5 41t-13 31.5t-6.5 35.5q0 61 50 101t106 40q49 0 81 -32q18 -18 52 -79l216 -384l53 -107h4q22 57 51 111l204 379q34 64 50 80q32 32 79 32q56 0 101.5 -38t45.5 -92q0 -16 -6 -34t-12 -29t-23 -40l-369 -620v-419q0 -123 -140 -123
q-139 0 -139 123v419zM496 1642l237 196q30 26 60 26q48 0 86 -47t38 -97q0 -45 -55 -76l-265 -149q-28 -15 -50 -15q-37 0 -63.5 30.5t-26.5 67.5q0 32 39 64z" />
    <glyph glyph-name="Thorn" unicode="&#xde;" horiz-adv-x="1163" 
d="M442 265v-159q0 -53 -35 -83t-104 -30q-138 0 -138 123v1147q0 122 138 122q69 0 104 -30t35 -83v-143h139q262 0 393 -109.5t131 -302.5q0 -211 -138.5 -331.5t-407.5 -120.5h-117zM442 475h132q121 0 185 59.5t64 165.5q0 216 -256 216h-125v-441z" />
    <glyph glyph-name="germandbls" unicode="&#xdf;" horiz-adv-x="1291" 
d="M147 113v925q0 220 132 338.5t399 118.5q185 0 287 -85t102 -216q0 -65 -23.5 -121t-56.5 -93.5t-66.5 -69.5t-57 -65.5t-23.5 -66.5t22 -59.5t57 -46t77.5 -40t85 -47t77.5 -60t57 -86.5t22 -119q0 -151 -108.5 -245t-304.5 -94q-174 0 -240 66q-34 34 -34 84
q0 38 24 62.5t61 24.5q19 0 75 -19t115 -19q72 0 108.5 30.5t36.5 81.5q0 34 -22 60.5t-57 45t-77.5 37t-85.5 43t-78 56.5t-57 83t-22 117q0 58 22.5 109.5t55 88t65 70t55 71t22.5 76.5q0 65 -42 101t-126 36q-96 0 -150.5 -58.5t-54.5 -169.5v-945q0 -120 -136 -120
t-136 120z" />
    <glyph glyph-name="agrave" unicode="&#xe0;" horiz-adv-x="1126" 
d="M715 288v104q-64 19 -156 19q-197 0 -197 -110q0 -53 40 -87t111 -34q36 0 70 11t57 27t40.5 32t25.5 27zM715 566v83q0 97 -47.5 138.5t-162.5 41.5q-71 0 -129 -14.5t-95 -29.5t-57 -15q-37 0 -60 24t-23 66q0 43 31 74q38 38 146 70t248 32q208 0 313.5 -90
t105.5 -264v-327q0 -79 8.5 -133t17 -83.5t8.5 -49.5q0 -44 -31.5 -71.5t-88.5 -27.5q-114 0 -150 128h-3q-4 -6 -12 -15t-36 -32.5t-60 -41.5t-85.5 -33t-112.5 -15q-162 0 -257.5 87t-95.5 224q0 142 119.5 217t325.5 75q49 0 94.5 -4.5t67.5 -9.5zM529 1164l-208 179
q-2 2 -10 8.5t-10.5 9l-9 9t-9 11t-6 11t-5 13.5t-1.5 15q0 49 42 89t89 40q41 0 76 -45l174 -216q1 -1 5 -6t5.5 -6.5t4.5 -6t4 -6.5t3.5 -6t3.5 -6.5t2 -6.5t1.5 -7.5t0.5 -7.5q0 -35 -27.5 -62.5t-65.5 -27.5q-30 0 -59 25z" />
    <glyph glyph-name="aacute" unicode="&#xe1;" horiz-adv-x="1126" 
d="M715 288v104q-64 19 -156 19q-197 0 -197 -110q0 -53 40 -87t111 -34q36 0 70 11t57 27t40.5 32t25.5 27zM715 566v83q0 97 -47.5 138.5t-162.5 41.5q-71 0 -129 -14.5t-95 -29.5t-57 -15q-37 0 -60 24t-23 66q0 43 31 74q38 38 146 70t248 32q208 0 313.5 -90
t105.5 -264v-327q0 -79 8.5 -133t17 -83.5t8.5 -49.5q0 -44 -31.5 -71.5t-88.5 -27.5q-114 0 -150 128h-3q-4 -6 -12 -15t-36 -32.5t-60 -41.5t-85.5 -33t-112.5 -15q-162 0 -257.5 87t-95.5 224q0 142 119.5 217t325.5 75q49 0 94.5 -4.5t67.5 -9.5zM469 1288l174 216
q35 45 76 45q47 0 89 -40t42 -89q0 -8 -1.5 -15t-5 -13.5t-6 -11t-9 -11l-9 -9t-10.5 -9t-10 -8.5l-208 -179q-29 -25 -59 -25q-38 0 -65.5 27.5t-27.5 62.5q0 11 5.5 23t8.5 16t16 20z" />
    <glyph glyph-name="acircumflex" unicode="&#xe2;" horiz-adv-x="1126" 
d="M715 288v104q-64 19 -156 19q-197 0 -197 -110q0 -53 40 -87t111 -34q36 0 70 11t57 27t40.5 32t25.5 27zM715 566v83q0 97 -47.5 138.5t-162.5 41.5q-71 0 -129 -14.5t-95 -29.5t-57 -15q-37 0 -60 24t-23 66q0 43 31 74q38 38 146 70t248 32q208 0 313.5 -90
t105.5 -264v-327q0 -79 8.5 -133t17 -83.5t8.5 -49.5q0 -44 -31.5 -71.5t-88.5 -27.5q-114 0 -150 128h-3q-4 -6 -12 -15t-36 -32.5t-60 -41.5t-85.5 -33t-112.5 -15q-162 0 -257.5 87t-95.5 224q0 142 119.5 217t325.5 75q49 0 94.5 -4.5t67.5 -9.5zM558 1304l-174 -138
q-31 -24 -55 -24q-33 0 -58 25t-25 58q0 25 31 58l191 197q47 47 97 47q55 0 98 -46l183 -190q33 -34 33 -59q0 -35 -27.5 -62t-62.5 -27q-29 0 -59 24z" />
    <glyph glyph-name="atilde" unicode="&#xe3;" horiz-adv-x="1126" 
d="M715 288v104q-64 19 -156 19q-197 0 -197 -110q0 -53 40 -87t111 -34q36 0 70 11t57 27t40.5 32t25.5 27zM715 566v83q0 97 -47.5 138.5t-162.5 41.5q-71 0 -129 -14.5t-95 -29.5t-57 -15q-37 0 -60 24t-23 66q0 43 31 74q38 38 146 70t248 32q208 0 313.5 -90
t105.5 -264v-327q0 -79 8.5 -133t17 -83.5t8.5 -49.5q0 -44 -31.5 -71.5t-88.5 -27.5q-114 0 -150 128h-3q-4 -6 -12 -15t-36 -32.5t-60 -41.5t-85.5 -33t-112.5 -15q-162 0 -257.5 87t-95.5 224q0 142 119.5 217t325.5 75q49 0 94.5 -4.5t67.5 -9.5zM420 1270
q-27 0 -49 -13t-34.5 -29t-32 -29t-42.5 -13q-34 0 -57 22t-23 61q0 71 73 134.5t179 63.5q47 0 89.5 -16t68.5 -34.5t56 -34.5t55 -16q34 0 58.5 21t47.5 42t52 21q34 0 57 -22t23 -60q0 -71 -73.5 -135t-178.5 -64q-47 0 -90 16t-69 34.5t-56 34.5t-54 16z" />
    <glyph glyph-name="adieresis" unicode="&#xe4;" horiz-adv-x="1126" 
d="M715 288v104q-64 19 -156 19q-197 0 -197 -110q0 -53 40 -87t111 -34q36 0 70 11t57 27t40.5 32t25.5 27zM715 566v83q0 97 -47.5 138.5t-162.5 41.5q-71 0 -129 -14.5t-95 -29.5t-57 -15q-37 0 -60 24t-23 66q0 43 31 74q38 38 146 70t248 32q208 0 313.5 -90
t105.5 -264v-327q0 -79 8.5 -133t17 -83.5t8.5 -49.5q0 -44 -31.5 -71.5t-88.5 -27.5q-114 0 -150 128h-3q-4 -6 -12 -15t-36 -32.5t-60 -41.5t-85.5 -33t-112.5 -15q-162 0 -257.5 87t-95.5 224q0 142 119.5 217t325.5 75q49 0 94.5 -4.5t67.5 -9.5zM190 1315
q0 63 43.5 106t108.5 43q66 0 107.5 -41t41.5 -104t-43.5 -106.5t-108.5 -43.5t-107 41t-42 105zM621 1315q0 63 43.5 106t109.5 43q65 0 106.5 -41t41.5 -104t-43 -106.5t-108 -43.5q-66 0 -108 41t-42 105z" />
    <glyph glyph-name="aring" unicode="&#xe5;" horiz-adv-x="1126" 
d="M715 288v104q-64 19 -156 19q-197 0 -197 -110q0 -53 40 -87t111 -34q36 0 70 11t57 27t40.5 32t25.5 27zM715 566v83q0 97 -47.5 138.5t-162.5 41.5q-71 0 -129 -14.5t-95 -29.5t-57 -15q-37 0 -60 24t-23 66q0 43 31 74q38 38 146 70t248 32q208 0 313.5 -90
t105.5 -264v-327q0 -79 8.5 -133t17 -83.5t8.5 -49.5q0 -44 -31.5 -71.5t-88.5 -27.5q-114 0 -150 128h-3q-4 -6 -12 -15t-36 -32.5t-60 -41.5t-85.5 -33t-112.5 -15q-162 0 -257.5 87t-95.5 224q0 142 119.5 217t325.5 75q49 0 94.5 -4.5t67.5 -9.5zM296 1355
q0 107 78.5 176.5t198.5 69.5t194.5 -65.5t74.5 -171.5q0 -105 -78.5 -175.5t-198.5 -70.5t-194.5 66t-74.5 171zM457 1359q0 -51 31 -81.5t81 -30.5q51 0 81.5 30.5t30.5 82.5q0 51 -30.5 81.5t-81.5 30.5t-81.5 -30.5t-30.5 -82.5z" />
    <glyph glyph-name="ae" unicode="&#xe6;" horiz-adv-x="1719" 
d="M732 285q-18 44 -26 108q-62 18 -147 18q-197 0 -197 -110q0 -53 40.5 -87t113.5 -34q37 0 73 11t60.5 26t44 30.5t28.5 26.5zM712 566v83q0 96 -46.5 138t-160.5 42q-71 0 -129 -14.5t-95 -29.5t-57 -15q-37 0 -60 24t-23 66q0 43 31 74q38 38 146 70t248 32
q230 0 316 -130q53 60 137 95.5t190 35.5q193 0 307.5 -117t114.5 -321q0 -147 -133 -147h-526v-2q11 -123 86.5 -190.5t201.5 -67.5q80 0 155 22.5t90 22.5q37 0 59 -24.5t22 -59.5q0 -46 -34 -80q-36 -36 -125 -64.5t-215 -28.5q-257 0 -395 158q-21 -21 -46 -41
t-72.5 -50t-113.5 -48t-138 -18q-167 0 -263.5 87t-96.5 224q0 142 119.5 217t325.5 75q48 0 93 -4.5t66 -9.5zM975 626h403q-13 111 -61 164.5t-134 53.5q-77 0 -132 -53.5t-76 -164.5z" />
    <glyph glyph-name="ccedilla" unicode="&#xe7;" horiz-adv-x="940" 
d="M395 -161l38 157q-163 39 -256 163.5t-93 310.5q0 260 146.5 413t386.5 153q84 0 142 -20.5t85 -47.5q35 -34 35 -88q0 -40 -24 -66.5t-62 -26.5q-20 0 -72.5 20t-108.5 20q-109 0 -180 -86t-71 -242q0 -144 73.5 -225.5t192.5 -81.5q59 0 111.5 19t66.5 19
q36 0 57.5 -25t21.5 -61q0 -47 -35 -84q-33 -33 -102.5 -56t-163.5 -24l-18 -70q81 -8 129.5 -52t48.5 -120q0 -99 -80 -164.5t-223 -65.5q-80 0 -115.5 23.5t-35.5 60.5q0 28 16 44.5t45 16.5q8 0 29 -1.5t34 -1.5q121 0 121 72q0 56 -75 56h-26q-53 0 -38 61z" />
    <glyph glyph-name="egrave" unicode="&#xe8;" horiz-adv-x="1102" 
d="M881 452h-526v-2q11 -123 86.5 -190.5t201.5 -67.5q80 0 155 22.5t90 22.5q37 0 59 -24.5t22 -59.5q0 -46 -34 -80q-36 -36 -125 -64.5t-215 -28.5q-238 0 -374.5 133.5t-136.5 361.5q0 261 140 411.5t368 150.5q193 0 307.5 -117t114.5 -321q0 -147 -133 -147zM358 626
h403q-13 111 -61 164.5t-134 53.5q-77 0 -132 -53.5t-76 -164.5zM529 1164l-208 179q-2 2 -10 8.5t-10.5 9l-9 9t-9 11t-6 11t-5 13.5t-1.5 15q0 49 42 89t89 40q41 0 76 -45l174 -216q1 -1 5 -6t5.5 -6.5t4.5 -6t4 -6.5t3.5 -6t3.5 -6.5t2 -6.5t1.5 -7.5t0.5 -7.5
q0 -35 -27.5 -62.5t-65.5 -27.5q-30 0 -59 25z" />
    <glyph glyph-name="eacute" unicode="&#xe9;" horiz-adv-x="1102" 
d="M881 452h-526v-2q11 -123 86.5 -190.5t201.5 -67.5q80 0 155 22.5t90 22.5q37 0 59 -24.5t22 -59.5q0 -46 -34 -80q-36 -36 -125 -64.5t-215 -28.5q-238 0 -374.5 133.5t-136.5 361.5q0 261 140 411.5t368 150.5q193 0 307.5 -117t114.5 -321q0 -147 -133 -147zM358 626
h403q-13 111 -61 164.5t-134 53.5q-77 0 -132 -53.5t-76 -164.5zM461 1288l174 216q35 45 76 45q47 0 89 -40t42 -89q0 -8 -1.5 -15t-5 -13.5t-6 -11t-9 -11l-9 -9t-10.5 -9t-10 -8.5l-208 -179q-29 -25 -59 -25q-38 0 -65.5 27.5t-27.5 62.5q0 11 5.5 23t8.5 16t16 20z" />
    <glyph glyph-name="ecircumflex" unicode="&#xea;" horiz-adv-x="1102" 
d="M881 452h-526v-2q11 -123 86.5 -190.5t201.5 -67.5q80 0 155 22.5t90 22.5q37 0 59 -24.5t22 -59.5q0 -46 -34 -80q-36 -36 -125 -64.5t-215 -28.5q-238 0 -374.5 133.5t-136.5 361.5q0 261 140 411.5t368 150.5q193 0 307.5 -117t114.5 -321q0 -147 -133 -147zM358 626
h403q-13 111 -61 164.5t-134 53.5q-77 0 -132 -53.5t-76 -164.5zM558 1304l-174 -138q-31 -24 -55 -24q-33 0 -58 25t-25 58q0 25 31 58l191 197q47 47 97 47q55 0 98 -46l183 -190q33 -34 33 -59q0 -35 -27.5 -62t-62.5 -27q-29 0 -59 24z" />
    <glyph glyph-name="edieresis" unicode="&#xeb;" horiz-adv-x="1102" 
d="M881 452h-526v-2q11 -123 86.5 -190.5t201.5 -67.5q80 0 155 22.5t90 22.5q37 0 59 -24.5t22 -59.5q0 -46 -34 -80q-36 -36 -125 -64.5t-215 -28.5q-238 0 -374.5 133.5t-136.5 361.5q0 261 140 411.5t368 150.5q193 0 307.5 -117t114.5 -321q0 -147 -133 -147zM358 626
h403q-13 111 -61 164.5t-134 53.5q-77 0 -132 -53.5t-76 -164.5zM196 1315q0 63 43.5 106t108.5 43q66 0 107.5 -41t41.5 -104t-43.5 -106.5t-108.5 -43.5t-107 41t-42 105zM627 1315q0 63 43.5 106t109.5 43q65 0 106.5 -41t41.5 -104t-43 -106.5t-108 -43.5q-66 0 -108 41
t-42 105z" />
    <glyph glyph-name="igrave" unicode="&#xec;" horiz-adv-x="565" 
d="M305 1164l-208 179q-2 2 -10 8.5t-10.5 9l-9 9t-9 11t-6 11t-5 13.5t-1.5 15q0 49 42 89t89 40q41 0 76 -45l174 -216q1 -1 5 -6t5.5 -6.5t4.5 -6t4 -6.5t3.5 -6t3.5 -6.5t2 -6.5t1.5 -7.5t0.5 -7.5q0 -35 -27.5 -62.5t-65.5 -27.5q-30 0 -59 25zM147 113v791
q0 120 136 120t136 -120v-791q0 -120 -136 -120t-136 120z" />
    <glyph glyph-name="iacute" unicode="&#xed;" horiz-adv-x="565" 
d="M134 1288l174 216q35 45 76 45q47 0 89 -40t42 -89q0 -8 -1.5 -15t-5 -13.5t-6 -11t-9 -11l-9 -9t-10.5 -9t-10 -8.5l-208 -179q-29 -25 -59 -25q-38 0 -65.5 27.5t-27.5 62.5q0 11 5.5 23t8.5 16t16 20zM147 113v791q0 120 136 120t136 -120v-791q0 -120 -136 -120
t-136 120z" />
    <glyph glyph-name="icircumflex" unicode="&#xee;" horiz-adv-x="565" 
d="M147 113v791q0 120 136 120t136 -120v-791q0 -120 -136 -120t-136 120zM280 1304l-149 -132q-32 -29 -62 -29q-32 0 -56.5 23.5t-24.5 55.5q0 27 31 63l160 185q27 30 50.5 44t57.5 14q60 0 109 -57l161 -188q26 -32 26 -55q0 -34 -28 -59.5t-63 -25.5q-31 0 -64 29z" />
    <glyph glyph-name="idieresis" unicode="&#xef;" horiz-adv-x="565" 
d="M147 113v791q0 120 136 120t136 -120v-791q0 -120 -136 -120t-136 120zM-68 1315q0 62 43 104.5t107 42.5t105 -40.5t41 -102.5q0 -63 -42.5 -105.5t-106.5 -42.5t-105.5 40.5t-41.5 103.5zM340 1315q0 62 43 104.5t107 42.5t105 -40.5t41 -102.5q0 -63 -42.5 -105.5
t-106.5 -42.5t-105.5 40.5t-41.5 103.5z" />
    <glyph glyph-name="eth" unicode="&#xf0;" horiz-adv-x="1172" 
d="M863 1363l-74 -57q140 -128 217 -309t77 -393q0 -310 -137.5 -467t-381.5 -157q-224 0 -353 129.5t-129 355.5q0 126 43 228t117 166.5t168 99t200 34.5q30 0 56.5 -4t37.5 -8l11 -4q-56 110 -137 181l-118 -90q-28 -21 -56 -21q-35 0 -61.5 27t-26.5 63q0 38 46 73
l79 60q-29 18 -69 35.5t-51 28.5q-21 21 -21 54q0 42 37.5 73t101.5 31q89 0 208 -76l117 88q27 21 56 21q35 0 61 -27t26 -63q0 -38 -44 -72zM816 559q0 94 -20 194q-60 35 -168 35q-122 0 -195.5 -80t-73.5 -223q0 -145 61.5 -220.5t162.5 -75.5q106 0 169.5 90t63.5 280z
" />
    <glyph glyph-name="ntilde" unicode="&#xf1;" horiz-adv-x="1225" 
d="M147 113v801q0 55 29 84t84 29q105 0 119 -96l8 -51h4l11 16.5t35 37.5t60.5 47.5t88.5 37.5t118 17q179 0 281 -108.5t102 -307.5v-507q0 -120 -136 -120t-136 120v475q0 231 -183 231q-40 0 -76.5 -15t-60 -36.5t-42 -43t-26.5 -36.5l-8 -15v-560q0 -120 -136 -120
t-136 120zM469 1270q-27 0 -49 -13t-34.5 -29t-32 -29t-42.5 -13q-34 0 -57 22t-23 61q0 71 73 134.5t179 63.5q47 0 89.5 -16t68.5 -34.5t56 -34.5t55 -16q34 0 58.5 21t47.5 42t52 21q34 0 57 -22t23 -60q0 -71 -73.5 -135t-178.5 -64q-47 0 -90 16t-69 34.5t-56 34.5
t-54 16z" />
    <glyph glyph-name="ograve" unicode="&#xf2;" horiz-adv-x="1213" 
d="M84 491q0 256 143.5 401t391.5 145q230 0 369.5 -140t139.5 -371q0 -256 -143 -401t-391 -145q-230 0 -370 140t-140 371zM361 511q0 -153 70 -237.5t178 -84.5q107 0 175 82.5t68 235.5q0 152 -70 236.5t-177 84.5q-108 0 -176 -82t-68 -235zM581 1164l-208 179
q-2 2 -10 8.5t-10.5 9l-9 9t-9 11t-6 11t-5 13.5t-1.5 15q0 49 42 89t89 40q41 0 76 -45l174 -216q1 -1 5 -6t5.5 -6.5t4.5 -6t4 -6.5t3.5 -6t3.5 -6.5t2 -6.5t1.5 -7.5t0.5 -7.5q0 -35 -27.5 -62.5t-65.5 -27.5q-30 0 -59 25z" />
    <glyph glyph-name="oacute" unicode="&#xf3;" horiz-adv-x="1213" 
d="M84 491q0 256 143.5 401t391.5 145q230 0 369.5 -140t139.5 -371q0 -256 -143 -401t-391 -145q-230 0 -370 140t-140 371zM361 511q0 -153 70 -237.5t178 -84.5q107 0 175 82.5t68 235.5q0 152 -70 236.5t-177 84.5q-108 0 -176 -82t-68 -235zM495 1288l174 216
q35 45 76 45q47 0 89 -40t42 -89q0 -8 -1.5 -15t-5 -13.5t-6 -11t-9 -11l-9 -9t-10.5 -9t-10 -8.5l-208 -179q-29 -25 -59 -25q-38 0 -65.5 27.5t-27.5 62.5q0 11 5.5 23t8.5 16t16 20z" />
    <glyph glyph-name="ocircumflex" unicode="&#xf4;" horiz-adv-x="1213" 
d="M84 491q0 256 143.5 401t391.5 145q230 0 369.5 -140t139.5 -371q0 -256 -143 -401t-391 -145q-230 0 -370 140t-140 371zM361 511q0 -153 70 -237.5t178 -84.5q107 0 175 82.5t68 235.5q0 152 -70 236.5t-177 84.5q-108 0 -176 -82t-68 -235zM603 1304l-174 -138
q-31 -24 -55 -24q-33 0 -58 25t-25 58q0 25 31 58l191 197q47 47 97 47q55 0 98 -46l183 -190q33 -34 33 -59q0 -35 -27.5 -62t-62.5 -27q-29 0 -59 24z" />
    <glyph glyph-name="otilde" unicode="&#xf5;" horiz-adv-x="1213" 
d="M84 491q0 256 143.5 401t391.5 145q230 0 369.5 -140t139.5 -371q0 -256 -143 -401t-391 -145q-230 0 -370 140t-140 371zM361 511q0 -153 70 -237.5t178 -84.5q107 0 175 82.5t68 235.5q0 152 -70 236.5t-177 84.5q-108 0 -176 -82t-68 -235zM462 1270q-27 0 -49 -13
t-34.5 -29t-32 -29t-42.5 -13q-34 0 -57 22t-23 61q0 71 73 134.5t179 63.5q47 0 89.5 -16t68.5 -34.5t56 -34.5t55 -16q34 0 58.5 21t47.5 42t52 21q34 0 57 -22t23 -60q0 -71 -73.5 -135t-178.5 -64q-47 0 -90 16t-69 34.5t-56 34.5t-54 16z" />
    <glyph glyph-name="odieresis" unicode="&#xf6;" horiz-adv-x="1213" 
d="M84 491q0 256 143.5 401t391.5 145q230 0 369.5 -140t139.5 -371q0 -256 -143 -401t-391 -145q-230 0 -370 140t-140 371zM361 511q0 -153 70 -237.5t178 -84.5q107 0 175 82.5t68 235.5q0 152 -70 236.5t-177 84.5q-108 0 -176 -82t-68 -235zM237 1315q0 63 43.5 106
t108.5 43q66 0 107.5 -41t41.5 -104t-43 -106.5t-109 -43.5q-65 0 -107 41t-42 105zM668 1315q0 63 43.5 106t109.5 43q65 0 106.5 -41t41.5 -104t-43 -106.5t-108 -43.5q-66 0 -108 41t-42 105z" />
    <glyph glyph-name="divide" unicode="&#xf7;" horiz-adv-x="1168" 
d="M230 684h707q43 0 68.5 -27t25.5 -73t-25.5 -73t-68.5 -27h-707q-43 0 -68 27t-25 73t25 73t68 27zM445 239q0 59 40 99t99 40q60 0 99.5 -40t39.5 -99t-39.5 -99t-99.5 -40q-59 0 -99 40t-40 99zM445 928q0 59 40 99t99 40t99 -40t40 -99t-40 -98.5t-99 -39.5t-99 39.5
t-40 98.5z" />
    <glyph glyph-name="oslash" unicode="&#xf8;" horiz-adv-x="1223" 
d="M170 -31l77 129q-162 142 -162 393q0 256 143.5 401t395.5 145q96 0 171 -27l82 137q34 55 84 55q42 0 76.5 -29t34.5 -69q0 -22 -18 -54l-79 -132q163 -141 163 -392q0 -256 -143.5 -401t-395.5 -145q-88 0 -171 27l-80 -134q-34 -56 -85 -56q-42 0 -76.5 29.5
t-34.5 68.5q0 23 18 54zM837 703l-306 -511q37 -19 83 -19q125 0 198 84t73 250q0 115 -48 196zM387 314l305 511q-35 19 -82 19q-125 0 -198.5 -84t-73.5 -249q0 -117 49 -197z" />
    <glyph glyph-name="ugrave" unicode="&#xf9;" horiz-adv-x="1221" 
d="M139 397v507q0 120 136 120t136 -120v-475q0 -231 178 -231q40 0 76.5 15t60 36.5t42 43t26.5 36.5l8 15v560q0 120 136 120t136 -120v-801q0 -55 -29 -84t-84 -29q-103 0 -119 97l-8 50h-4l-11 -16.5t-35 -37.5t-60.5 -47.5t-88.5 -37.5t-118 -17q-176 0 -277 108.5
t-101 307.5zM560 1164l-208 179q-2 2 -10 8.5t-10.5 9l-9 9t-9 11t-6 11t-5 13.5t-1.5 15q0 49 42 89t89 40q41 0 76 -45l174 -216q1 -1 5 -6t5.5 -6.5t4.5 -6t4 -6.5t3.5 -6t3.5 -6.5t2 -6.5t1.5 -7.5t0.5 -7.5q0 -35 -27.5 -62.5t-65.5 -27.5q-30 0 -59 25z" />
    <glyph glyph-name="uacute" unicode="&#xfa;" horiz-adv-x="1221" 
d="M139 397v507q0 120 136 120t136 -120v-475q0 -231 178 -231q40 0 76.5 15t60 36.5t42 43t26.5 36.5l8 15v560q0 120 136 120t136 -120v-801q0 -55 -29 -84t-84 -29q-103 0 -119 97l-8 50h-4l-11 -16.5t-35 -37.5t-60.5 -47.5t-88.5 -37.5t-118 -17q-176 0 -277 108.5
t-101 307.5zM502 1288l174 216q35 45 76 45q47 0 89 -40t42 -89q0 -8 -1.5 -15t-5 -13.5t-6 -11t-9 -11l-9 -9t-10.5 -9t-10 -8.5l-208 -179q-29 -25 -59 -25q-38 0 -65.5 27.5t-27.5 62.5q0 11 5.5 23t8.5 16t16 20z" />
    <glyph glyph-name="ucircumflex" unicode="&#xfb;" horiz-adv-x="1221" 
d="M139 397v507q0 120 136 120t136 -120v-475q0 -231 178 -231q40 0 76.5 15t60 36.5t42 43t26.5 36.5l8 15v560q0 120 136 120t136 -120v-801q0 -55 -29 -84t-84 -29q-103 0 -119 97l-8 50h-4l-11 -16.5t-35 -37.5t-60.5 -47.5t-88.5 -37.5t-118 -17q-176 0 -277 108.5
t-101 307.5zM603 1304l-174 -138q-31 -24 -55 -24q-33 0 -58 25t-25 58q0 25 31 58l191 197q47 47 97 47q55 0 98 -46l183 -190q33 -34 33 -59q0 -35 -27.5 -62t-62.5 -27q-29 0 -59 24z" />
    <glyph glyph-name="udieresis" unicode="&#xfc;" horiz-adv-x="1221" 
d="M139 397v507q0 120 136 120t136 -120v-475q0 -231 178 -231q40 0 76.5 15t60 36.5t42 43t26.5 36.5l8 15v560q0 120 136 120t136 -120v-801q0 -55 -29 -84t-84 -29q-103 0 -119 97l-8 50h-4l-11 -16.5t-35 -37.5t-60.5 -47.5t-88.5 -37.5t-118 -17q-176 0 -277 108.5
t-101 307.5zM239 1315q0 63 43.5 106t108.5 43q66 0 107.5 -41t41.5 -104t-43 -106.5t-109 -43.5q-65 0 -107 41t-42 105zM670 1315q0 63 43.5 106t109.5 43q65 0 106.5 -41t41.5 -104t-43 -106.5t-108 -43.5q-66 0 -108 41t-42 105z" />
    <glyph glyph-name="yacute" unicode="&#xfd;" horiz-adv-x="1061" 
d="M381 -52l-318 872q-20 55 -20 82q0 56 47.5 90.5t103.5 34.5q52 0 82 -33q17 -18 41 -89l176 -527q12 -35 22.5 -74t14.5 -60l5 -22h4q17 78 42 156l173 533q22 67 39 85q28 31 83 31q54 0 98.5 -31.5t44.5 -83.5q0 -26 -18 -75l-259 -700q-122 -330 -265.5 -475
t-350.5 -145q-105 0 -152 47q-33 33 -33 83q0 41 25 66t68 25q19 0 47.5 -3.5t46.5 -3.5q80 0 141.5 54t111.5 163zM456 1288l174 216q35 45 76 45q47 0 89 -40t42 -89q0 -8 -1.5 -15t-5 -13.5t-6 -11t-9 -11l-9 -9t-10.5 -9t-10 -8.5l-208 -179q-29 -25 -59 -25
q-38 0 -65.5 27.5t-27.5 62.5q0 11 5.5 23t8.5 16t16 20z" />
    <glyph glyph-name="thorn" unicode="&#xfe;" horiz-adv-x="1204" 
d="M419 673v-454q54 -32 156 -32q123 0 195.5 84.5t72.5 245.5q0 302 -209 302q-40 0 -77 -15t-61 -36.5t-42.5 -43t-26.5 -36.5zM147 -358v1720q0 120 136 120t136 -120v-301q0 -71 -9 -154h3q4 5 11 14t33.5 31t57 39t81.5 31t106 14q193 0 305 -128t112 -372
q0 -263 -149 -409.5t-420 -146.5q-33 0 -66 4t-49 8l-16 4l-3 -1q3 -51 3 -108v-245q0 -120 -136 -120t-136 120z" />
    <glyph glyph-name="ydieresis" unicode="&#xff;" horiz-adv-x="1061" 
d="M381 -52l-318 872q-20 55 -20 82q0 56 47.5 90.5t103.5 34.5q52 0 82 -33q17 -18 41 -89l176 -527q12 -35 22.5 -74t14.5 -60l5 -22h4q17 78 42 156l173 533q22 67 39 85q28 31 83 31q54 0 98.5 -31.5t44.5 -83.5q0 -26 -18 -75l-259 -700q-122 -330 -265.5 -475
t-350.5 -145q-105 0 -152 47q-33 33 -33 83q0 41 25 66t68 25q19 0 47.5 -3.5t46.5 -3.5q80 0 141.5 54t111.5 163zM172 1315q0 63 43.5 106t108.5 43q66 0 107.5 -41t41.5 -104t-43.5 -106.5t-108.5 -43.5t-107 41t-42 105zM603 1315q0 63 43.5 106t109.5 43
q65 0 106.5 -41t41.5 -104t-43 -106.5t-108 -43.5q-66 0 -108 41t-42 105z" />
    <glyph glyph-name="Amacron" unicode="&#x100;" horiz-adv-x="1293" 
d="M386 324l-67 -206q-25 -76 -46 -97q-31 -31 -87 -31q-55 0 -100 33t-45 85q0 22 20 81l351 1009q32 91 74 133q53 53 160 53t160 -53q42 -42 74 -133l352 -1004q19 -53 19 -80q0 -57 -47 -90.5t-105 -33.5q-57 0 -91 34q-21 21 -45 93l-71 207h-506zM448 537h378
l-131 394l-61 200h-4q-23 -92 -57 -200zM374 1746h526q87 0 87 -97q0 -96 -87 -96h-526q-87 0 -87 96q0 97 87 97z" />
    <glyph glyph-name="amacron" unicode="&#x101;" horiz-adv-x="1126" 
d="M715 288v104q-64 19 -156 19q-197 0 -197 -110q0 -53 40 -87t111 -34q36 0 70 11t57 27t40.5 32t25.5 27zM715 566v83q0 97 -47.5 138.5t-162.5 41.5q-71 0 -129 -14.5t-95 -29.5t-57 -15q-37 0 -60 24t-23 66q0 43 31 74q38 38 146 70t248 32q208 0 313.5 -90
t105.5 -264v-327q0 -79 8.5 -133t17 -83.5t8.5 -49.5q0 -44 -31.5 -71.5t-88.5 -27.5q-114 0 -150 128h-3q-4 -6 -12 -15t-36 -32.5t-60 -41.5t-85.5 -33t-112.5 -15q-162 0 -257.5 87t-95.5 224q0 142 119.5 217t325.5 75q49 0 94.5 -4.5t67.5 -9.5zM305 1411h520
q86 0 86 -96q0 -46 -22.5 -70.5t-63.5 -24.5h-520q-41 0 -63.5 24.5t-22.5 70.5q0 96 86 96z" />
    <glyph glyph-name="Abreve" unicode="&#x102;" horiz-adv-x="1293" 
d="M386 324l-67 -206q-25 -76 -46 -97q-31 -31 -87 -31q-55 0 -100 33t-45 85q0 22 20 81l351 1009q32 91 74 133q53 53 160 53t160 -53q42 -42 74 -133l352 -1004q19 -53 19 -80q0 -57 -47 -90.5t-105 -33.5q-57 0 -91 34q-21 21 -45 93l-71 207h-506zM448 537h378
l-131 394l-61 200h-4q-23 -92 -57 -200zM314 1757q0 44 24.5 68t66.5 24q70 0 82 -65q20 -112 148 -112t149 112q12 65 82 65q42 0 66.5 -24t24.5 -68q0 -116 -97 -193t-231 -77q-138 0 -226.5 76t-88.5 194z" />
    <glyph glyph-name="abreve" unicode="&#x103;" horiz-adv-x="1126" 
d="M715 288v104q-64 19 -156 19q-197 0 -197 -110q0 -53 40 -87t111 -34q36 0 70 11t57 27t40.5 32t25.5 27zM715 566v83q0 97 -47.5 138.5t-162.5 41.5q-71 0 -129 -14.5t-95 -29.5t-57 -15q-37 0 -60 24t-23 66q0 43 31 74q38 38 146 70t248 32q208 0 313.5 -90
t105.5 -264v-327q0 -79 8.5 -133t17 -83.5t8.5 -49.5q0 -44 -31.5 -71.5t-88.5 -27.5q-114 0 -150 128h-3q-4 -6 -12 -15t-36 -32.5t-60 -41.5t-85.5 -33t-112.5 -15q-162 0 -257.5 87t-95.5 224q0 142 119.5 217t325.5 75q49 0 94.5 -4.5t67.5 -9.5zM254 1414q0 43 24.5 66
t65.5 23q67 0 79 -61q21 -126 140 -126q120 0 140 126q11 61 79 61q41 0 65.5 -23t24.5 -66q0 -119 -88.5 -198.5t-228.5 -79.5q-129 0 -215 74.5t-86 203.5z" />
    <glyph glyph-name="Aogonek" unicode="&#x104;" horiz-adv-x="1293" 
d="M448 537h378l-131 394l-61 200h-4q-24 -92 -57 -200zM386 324l-67 -206q-25 -76 -46 -97q-31 -31 -87 -31q-55 0 -100 33t-45 85q0 22 20 81l351 1009q32 91 74 133q53 53 160 53t160 -53q41 -40 74 -133l352 -1004q19 -53 19 -80q0 -49 -40 -87q-64 -63 -94.5 -96
t-59.5 -81.5t-29 -88.5q0 -73 72 -73q22 0 49 7.5t41 7.5q28 0 46.5 -18.5t18.5 -46.5q0 -39 -30 -69q-26 -26 -79 -43.5t-119 -17.5q-115 0 -176.5 53t-61.5 143q0 84 65 165.5t161 148.5q-27 23 -52 99l-71 207h-506z" />
    <glyph glyph-name="aogonek" unicode="&#x105;" horiz-adv-x="1126" 
d="M715 288v104q-64 19 -156 19q-197 0 -197 -110q0 -53 40 -87t111 -34q36 0 70 11t57 27t40.5 32t25.5 27zM715 566v83q0 97 -47.5 138.5t-162.5 41.5q-71 0 -129 -14.5t-95 -29.5t-57 -15q-37 0 -60 24t-23 66q0 43 31 74q38 38 146 70t248 32q208 0 313.5 -90
t105.5 -264v-327q0 -79 8.5 -133t17 -83.5t8.5 -49.5q0 -41 -42 -83q-10 -10 -46 -45t-50 -51t-37.5 -45.5t-32.5 -55t-9 -51.5q0 -70 67 -70q23 0 50 7.5t40 7.5q29 0 47 -18t18 -47q0 -39 -30 -69q-26 -26 -78.5 -43.5t-119.5 -17.5q-113 0 -172.5 52.5t-59.5 141.5
q0 88 69.5 172t170.5 149q-35 30 -55 95h-3q-4 -6 -12 -15t-36 -32.5t-60 -41.5t-85.5 -33t-112.5 -15q-162 0 -257.5 87t-95.5 224q0 142 119.5 217t325.5 75q49 0 94.5 -4.5t67.5 -9.5z" />
    <glyph glyph-name="Cacute" unicode="&#x106;" horiz-adv-x="1189" 
d="M91 643q0 346 184 549.5t484 203.5q115 0 197.5 -29.5t119.5 -66.5q40 -40 40 -97q0 -43 -27 -71t-69 -28q-22 0 -55.5 17t-87 34.5t-124.5 17.5q-78 0 -145 -31.5t-119 -92t-82 -157t-30 -218.5q0 -221 108 -343.5t282 -122.5q69 0 123.5 17t89.5 33.5t56 16.5
q36 0 60 -26.5t24 -66.5q0 -51 -39 -90q-44 -43 -137 -76t-225 -33q-283 0 -455.5 178.5t-172.5 481.5zM582 1642l237 196q30 26 60 26q48 0 86 -47t38 -97q0 -45 -55 -76l-265 -149q-28 -15 -50 -15q-37 0 -63.5 30.5t-26.5 67.5q0 32 39 64z" />
    <glyph glyph-name="cacute" unicode="&#x107;" horiz-adv-x="940" 
d="M84 470q0 260 146.5 413t386.5 153q84 0 142 -20.5t85 -47.5q35 -34 35 -88q0 -40 -24 -66.5t-62 -26.5q-20 0 -72.5 20t-108.5 20q-109 0 -180 -86t-71 -242q0 -144 73.5 -225.5t192.5 -81.5q59 0 111.5 19t66.5 19q36 0 57.5 -25t21.5 -61q0 -47 -35 -84
q-34 -34 -104.5 -57t-173.5 -23q-222 0 -354.5 133t-132.5 357zM434 1288l174 216q35 45 76 45q47 0 89 -40t42 -89q0 -8 -1.5 -15t-5 -13.5t-6 -11t-9 -11l-9 -9t-10.5 -9t-10 -8.5l-208 -179q-29 -25 -59 -25q-38 0 -65.5 27.5t-27.5 62.5q0 11 5.5 23t8.5 16t16 20z" />
    <glyph glyph-name="Ccircumflex" unicode="&#x108;" horiz-adv-x="1189" 
d="M91 643q0 346 184 549.5t484 203.5q115 0 197.5 -29.5t119.5 -66.5q40 -40 40 -97q0 -43 -27 -71t-69 -28q-22 0 -55.5 17t-87 34.5t-124.5 17.5q-78 0 -145 -31.5t-119 -92t-82 -157t-30 -218.5q0 -221 108 -343.5t282 -122.5q69 0 123.5 17t89.5 33.5t56 16.5
q36 0 60 -26.5t24 -66.5q0 -51 -39 -90q-44 -43 -137 -76t-225 -33q-283 0 -455.5 178.5t-172.5 481.5zM697 1631l-190 -127q-30 -20 -53 -20q-33 0 -57.5 25.5t-24.5 58.5q0 32 39 68l188 171q52 47 108 47q58 0 107 -46l184 -172q33 -30 33 -60q0 -37 -27 -63.5t-61 -26.5
q-27 0 -56 20z" />
    <glyph glyph-name="ccircumflex" unicode="&#x109;" horiz-adv-x="940" 
d="M84 470q0 260 146.5 413t386.5 153q84 0 142 -20.5t85 -47.5q35 -34 35 -88q0 -40 -24 -66.5t-62 -26.5q-20 0 -72.5 20t-108.5 20q-109 0 -180 -86t-71 -242q0 -144 73.5 -225.5t192.5 -81.5q59 0 111.5 19t66.5 19q36 0 57.5 -25t21.5 -61q0 -47 -35 -84
q-34 -34 -104.5 -57t-173.5 -23q-222 0 -354.5 133t-132.5 357zM539 1304l-174 -138q-31 -24 -55 -24q-33 0 -58 25t-25 58q0 25 31 58l191 197q47 47 97 47q55 0 98 -46l183 -190q33 -34 33 -59q0 -35 -27.5 -62t-62.5 -27q-29 0 -59 24z" />
    <glyph glyph-name="Cdotaccent" unicode="&#x10a;" horiz-adv-x="1189" 
d="M91 643q0 346 184 549.5t484 203.5q115 0 197.5 -29.5t119.5 -66.5q40 -40 40 -97q0 -43 -27 -71t-69 -28q-22 0 -55.5 17t-87 34.5t-124.5 17.5q-78 0 -145 -31.5t-119 -92t-82 -157t-30 -218.5q0 -221 108 -343.5t282 -122.5q69 0 123.5 17t89.5 33.5t56 16.5
q36 0 60 -26.5t24 -66.5q0 -51 -39 -90q-44 -43 -137 -76t-225 -33q-283 0 -455.5 178.5t-172.5 481.5zM552 1661q0 64 43.5 107t109.5 43t107.5 -41t41.5 -105t-43.5 -108t-108.5 -44q-66 0 -108 41.5t-42 106.5z" />
    <glyph glyph-name="cdotaccent" unicode="&#x10b;" horiz-adv-x="940" 
d="M84 470q0 260 146.5 413t386.5 153q84 0 142 -20.5t85 -47.5q35 -34 35 -88q0 -40 -24 -66.5t-62 -26.5q-20 0 -72.5 20t-108.5 20q-109 0 -180 -86t-71 -242q0 -144 73.5 -225.5t192.5 -81.5q59 0 111.5 19t66.5 19q36 0 57.5 -25t21.5 -61q0 -47 -35 -84
q-34 -34 -104.5 -57t-173.5 -23q-222 0 -354.5 133t-132.5 357zM396 1321q0 63 43.5 106t108.5 43t106.5 -41t41.5 -104t-43 -106.5t-108 -43.5t-107 41t-42 105z" />
    <glyph glyph-name="Ccaron" unicode="&#x10c;" horiz-adv-x="1189" 
d="M91 643q0 346 184 549.5t484 203.5q115 0 197.5 -29.5t119.5 -66.5q40 -40 40 -97q0 -43 -27 -71t-69 -28q-22 0 -55.5 17t-87 34.5t-124.5 17.5q-78 0 -145 -31.5t-119 -92t-82 -157t-30 -218.5q0 -221 108 -343.5t282 -122.5q69 0 123.5 17t89.5 33.5t56 16.5
q36 0 60 -26.5t24 -66.5q0 -51 -39 -90q-44 -43 -137 -76t-225 -33q-283 0 -455.5 178.5t-172.5 481.5zM707 1712l189 127q31 20 54 20q33 0 57.5 -25.5t24.5 -58.5q0 -32 -40 -68l-188 -171q-52 -47 -107 -47q-58 0 -108 47l-183 171q-33 30 -33 61q0 36 27 63t61 27
q24 0 56 -21z" />
    <glyph glyph-name="ccaron" unicode="&#x10d;" horiz-adv-x="940" 
d="M84 470q0 260 146.5 413t386.5 153q84 0 142 -20.5t85 -47.5q35 -34 35 -88q0 -40 -24 -66.5t-62 -26.5q-20 0 -72.5 20t-108.5 20q-109 0 -180 -86t-71 -242q0 -144 73.5 -225.5t192.5 -81.5q59 0 111.5 19t66.5 19q36 0 57.5 -25t21.5 -61q0 -47 -35 -84
q-34 -34 -104.5 -57t-173.5 -23q-222 0 -354.5 133t-132.5 357zM545 1364l174 138q31 24 55 24q33 0 58 -25t25 -58q0 -27 -31 -58l-191 -197q-45 -47 -97 -47q-51 0 -97 46l-184 190q-33 34 -33 59q0 35 27.5 62t62.5 27q29 0 59 -24z" />
    <glyph glyph-name="Dcaron" unicode="&#x10e;" horiz-adv-x="1419" 
d="M165 127v1124q0 60 33 93.5t94 33.5h335q340 0 522 -173.5t182 -485.5q0 -337 -194 -528t-539 -191h-306q-61 0 -94 33.5t-33 93.5zM444 215h168q203 0 318 124.5t115 358.5q0 465 -433 465h-168v-948zM657 1712l189 127q31 20 54 20q33 0 57.5 -25.5t24.5 -58.5
q0 -32 -40 -68l-188 -171q-52 -47 -107 -47q-58 0 -108 47l-183 171q-33 30 -33 61q0 36 27 63t61 27q24 0 56 -21z" />
    <glyph glyph-name="dcaron" unicode="&#x10f;" horiz-adv-x="1372" 
d="M789 1130v232q0 120 136 120t136 -120v-1259q0 -55 -29 -84t-84 -29q-102 0 -119 97l-9 50h-3q-4 -6 -11.5 -16.5t-35.5 -37.5t-60.5 -47.5t-87.5 -37.5t-116 -17q-193 0 -305.5 128t-112.5 372q0 263 149 409.5t421 146.5q34 0 67 -4t49 -8l15 -4l3 1q-3 51 -3 108z
M789 344v452q-54 32 -156 32q-123 0 -195.5 -84t-72.5 -243q0 -303 209 -303q40 0 77 15t61 36.5t42.5 43t26.5 36.5zM1166 1261l66 251q11 43 33.5 63t62.5 20q50 0 89.5 -27.5t39.5 -67.5q0 -21 -16 -54l-117 -253q-23 -51 -77 -51q-36 0 -62.5 19.5t-26.5 51.5q0 20 8 48
z" />
    <glyph glyph-name="Dcroat" unicode="&#x110;" horiz-adv-x="1457" 
d="M203 618h-80q-40 0 -63.5 26.5t-23.5 73.5t23.5 72t63.5 25h80v436q0 60 33 93.5t94 33.5h335q340 0 522 -173.5t182 -485.5q0 -337 -194 -528t-539 -191h-306q-61 0 -94 33.5t-33 93.5v491zM482 618v-403h168q203 0 318 124.5t115 358.5q0 465 -433 465h-168v-348h200
q40 0 63.5 -25.5t23.5 -72.5t-23.5 -73t-63.5 -26h-200z" />
    <glyph glyph-name="dcroat" unicode="&#x111;" horiz-adv-x="1211" 
d="M783 1144h-199q-38 0 -60.5 23.5t-22.5 66.5t22.5 66t60.5 23h199v73q0 45 36.5 69t99.5 24t99.5 -24t36.5 -69v-73h75q38 0 60 -23t22 -66t-22 -66.5t-60 -23.5h-75v-1041q0 -55 -29 -84t-84 -29q-103 0 -119 97l-8 50h-4q-4 -6 -11.5 -16.5t-35 -37.5t-60.5 -47.5
t-88 -37.5t-116 -17q-190 0 -303 127t-113 365q0 259 149 404t419 145q34 0 67 -4t49 -8l15 -4l3 1q-3 48 -3 100v37zM783 344v441q-54 32 -156 32q-121 0 -193.5 -83t-72.5 -239q0 -297 208 -297q40 0 77 15t60.5 36.5t42 43t26.5 36.5z" />
    <glyph glyph-name="Emacron" unicode="&#x112;" horiz-adv-x="1086" 
d="M444 597v-380h470q44 0 69 -28t25 -81q0 -52 -25 -80t-69 -28h-622q-61 0 -94 33.5t-33 93.5v1124q0 60 33 93.5t94 33.5h617q44 0 69.5 -28t25.5 -80q0 -53 -25.5 -81t-69.5 -28h-465v-351h397q43 0 68 -27.5t25 -79.5q0 -51 -25 -78.5t-68 -27.5h-397zM310 1746h526
q87 0 87 -97q0 -96 -87 -96h-526q-87 0 -87 96q0 97 87 97z" />
    <glyph glyph-name="emacron" unicode="&#x113;" horiz-adv-x="1102" 
d="M881 452h-526v-2q11 -123 86.5 -190.5t201.5 -67.5q80 0 155 22.5t90 22.5q37 0 59 -24.5t22 -59.5q0 -46 -34 -80q-36 -36 -125 -64.5t-215 -28.5q-238 0 -374.5 133.5t-136.5 361.5q0 261 140 411.5t368 150.5q193 0 307.5 -117t114.5 -321q0 -147 -133 -147zM358 626
h403q-13 111 -61 164.5t-134 53.5q-77 0 -132 -53.5t-76 -164.5zM302 1411h520q86 0 86 -96q0 -46 -22.5 -70.5t-63.5 -24.5h-520q-41 0 -63.5 24.5t-22.5 70.5q0 96 86 96z" />
    <glyph glyph-name="Ebreve" unicode="&#x114;" horiz-adv-x="1086" 
d="M444 597v-380h470q44 0 69 -28t25 -81q0 -52 -25 -80t-69 -28h-622q-61 0 -94 33.5t-33 93.5v1124q0 60 33 93.5t94 33.5h617q44 0 69.5 -28t25.5 -80q0 -53 -25.5 -81t-69.5 -28h-465v-351h397q43 0 68 -27.5t25 -79.5q0 -51 -25 -78.5t-68 -27.5h-397zM256 1757
q0 44 24.5 68t66.5 24q70 0 82 -65q20 -112 148 -112t149 112q12 65 82 65q42 0 66.5 -24t24.5 -68q0 -116 -97 -193t-231 -77q-138 0 -226.5 76t-88.5 194z" />
    <glyph glyph-name="ebreve" unicode="&#x115;" horiz-adv-x="1102" 
d="M881 452h-526v-2q11 -123 86.5 -190.5t201.5 -67.5q80 0 155 22.5t90 22.5q37 0 59 -24.5t22 -59.5q0 -46 -34 -80q-36 -36 -125 -64.5t-215 -28.5q-238 0 -374.5 133.5t-136.5 361.5q0 261 140 411.5t368 150.5q193 0 307.5 -117t114.5 -321q0 -147 -133 -147zM358 626
h403q-13 111 -61 164.5t-134 53.5q-77 0 -132 -53.5t-76 -164.5zM254 1414q0 43 24.5 66t65.5 23q67 0 79 -61q21 -126 140 -126q120 0 140 126q11 61 79 61q41 0 65.5 -23t24.5 -66q0 -119 -88.5 -198.5t-228.5 -79.5q-129 0 -215 74.5t-86 203.5z" />
    <glyph glyph-name="Edotaccent" unicode="&#x116;" horiz-adv-x="1086" 
d="M444 597v-380h470q44 0 69 -28t25 -81q0 -52 -25 -80t-69 -28h-622q-61 0 -94 33.5t-33 93.5v1124q0 60 33 93.5t94 33.5h617q44 0 69.5 -28t25.5 -80q0 -53 -25.5 -81t-69.5 -28h-465v-351h397q43 0 68 -27.5t25 -79.5q0 -51 -25 -78.5t-68 -27.5h-397zM444 1661
q0 64 43.5 107t109.5 43t107.5 -41t41.5 -105t-43.5 -108t-108.5 -44q-66 0 -108 41.5t-42 106.5z" />
    <glyph glyph-name="edotaccent" unicode="&#x117;" horiz-adv-x="1102" 
d="M881 452h-526v-2q11 -123 86.5 -190.5t201.5 -67.5q80 0 155 22.5t90 22.5q37 0 59 -24.5t22 -59.5q0 -46 -34 -80q-36 -36 -125 -64.5t-215 -28.5q-238 0 -374.5 133.5t-136.5 361.5q0 261 140 411.5t368 150.5q193 0 307.5 -117t114.5 -321q0 -147 -133 -147zM358 626
h403q-13 111 -61 164.5t-134 53.5q-77 0 -132 -53.5t-76 -164.5zM416 1321q0 63 43.5 106t108.5 43t106.5 -41t41.5 -104t-43 -106.5t-108 -43.5t-107 41t-42 105z" />
    <glyph glyph-name="Eogonek" unicode="&#x118;" horiz-adv-x="1086" 
d="M444 597v-380h470q44 0 69 -28t25 -81q0 -36 -11.5 -59.5t-35.5 -48.5q-5 -5 -25 -24.5t-27 -27t-25 -25.5t-26 -28t-22 -27t-20.5 -29t-14 -27t-10.5 -28.5t-3 -26.5q0 -69 67 -69q21 0 47.5 7.5t40.5 7.5q28 0 46 -18t18 -47q0 -39 -30 -69q-26 -26 -78.5 -43.5
t-116.5 -17.5q-112 0 -172 52.5t-60 142.5q0 81 62.5 159.5t150.5 137.5h-471q-61 0 -94 33.5t-33 93.5v1124q0 60 33 93.5t94 33.5h617q44 0 69.5 -28t25.5 -80q0 -53 -25.5 -81t-69.5 -28h-465v-351h397q43 0 68 -27.5t25 -78.5q0 -52 -25 -79.5t-68 -27.5h-397z" />
    <glyph glyph-name="eogonek" unicode="&#x119;" horiz-adv-x="1102" 
d="M881 452h-526v-2q9 -124 85 -191t203 -67q80 0 155 22.5t90 22.5q37 0 59 -24.5t22 -59.5q0 -46 -34 -80q-17 -17 -55 -51.5t-64 -60t-55 -60t-44 -70t-15 -70.5q0 -73 72 -73q23 0 50 7.5t40 7.5q29 0 47 -18t18 -47q0 -39 -30 -69q-26 -26 -78.5 -43.5t-119.5 -17.5
q-115 0 -176 53t-61 143q0 77 51 150t126 128q-24 -2 -48 -2q-236 0 -372.5 133.5t-136.5 361.5q0 261 140 411.5t368 150.5q193 0 307.5 -117t114.5 -321q0 -147 -133 -147zM358 626h403q-13 111 -61 164.5t-134 53.5q-77 0 -132 -53.5t-76 -164.5z" />
    <glyph glyph-name="Ecaron" unicode="&#x11a;" horiz-adv-x="1086" 
d="M444 597v-380h470q44 0 69 -28t25 -81q0 -52 -25 -80t-69 -28h-622q-61 0 -94 33.5t-33 93.5v1124q0 60 33 93.5t94 33.5h617q44 0 69.5 -28t25.5 -80q0 -53 -25.5 -81t-69.5 -28h-465v-351h397q43 0 68 -27.5t25 -79.5q0 -51 -25 -78.5t-68 -27.5h-397zM583 1712
l189 127q31 20 54 20q33 0 57.5 -25.5t24.5 -58.5q0 -32 -40 -68l-188 -171q-52 -47 -107 -47q-58 0 -108 47l-183 171q-33 30 -33 61q0 36 27 63t61 27q24 0 56 -21z" />
    <glyph glyph-name="ecaron" unicode="&#x11b;" horiz-adv-x="1102" 
d="M881 452h-526v-2q11 -123 86.5 -190.5t201.5 -67.5q80 0 155 22.5t90 22.5q37 0 59 -24.5t22 -59.5q0 -46 -34 -80q-36 -36 -125 -64.5t-215 -28.5q-238 0 -374.5 133.5t-136.5 361.5q0 261 140 411.5t368 150.5q193 0 307.5 -117t114.5 -321q0 -147 -133 -147zM358 626
h403q-13 111 -61 164.5t-134 53.5q-77 0 -132 -53.5t-76 -164.5zM571 1364l174 138q31 24 55 24q33 0 58 -25t25 -58q0 -27 -31 -58l-191 -197q-45 -47 -97 -47q-51 0 -97 46l-184 190q-33 34 -33 59q0 35 27.5 62t62.5 27q29 0 59 -24z" />
    <glyph glyph-name="Gcircumflex" unicode="&#x11c;" horiz-adv-x="1400" 
d="M1006 544h-189q-43 0 -67.5 28t-24.5 77q0 48 24.5 76t67.5 28h335q56 0 86.5 -30.5t30.5 -86.5v-408q0 -48 -13 -79t-43 -57q-49 -43 -159 -77.5t-269 -34.5q-326 0 -510 178.5t-184 495.5q0 340 199 541t552 201q134 0 233 -34.5t139 -74.5q39 -39 39 -95
q0 -44 -27.5 -71.5t-69.5 -27.5q-20 0 -50.5 12.5t-61.5 28t-92 28t-136 12.5q-201 0 -320 -127.5t-119 -361.5q0 -238 119 -365t328 -127q56 0 101.5 8t62.5 16l18 8v319zM762 1631l-190 -127q-30 -20 -53 -20q-33 0 -57.5 25.5t-24.5 58.5q0 32 39 68l188 171
q52 47 108 47q58 0 107 -46l184 -172q33 -30 33 -60q0 -37 -27 -63.5t-61 -26.5q-27 0 -56 20z" />
    <glyph glyph-name="gcircumflex" unicode="&#x11d;" horiz-adv-x="1088" 
d="M985 1008l-94 -88q98 -93 98 -226q0 -168 -118 -271t-332 -103q-67 0 -121 15q-43 -35 -43 -79q0 -43 38 -64.5t137 -21.5h124q199 0 297 -75.5t98 -210.5q0 -162 -144.5 -269t-404.5 -107q-238 0 -354.5 84t-116.5 216q0 49 16.5 93t39.5 72t46 49.5t39 30.5l17 9
q-72 63 -72 157q0 52 26.5 99.5t52.5 69.5l26 22q-127 98 -127 252q0 167 118.5 270.5t332.5 103.5q86 0 163 -25l114 139q27 33 48 46t48 13q43 0 76.5 -31.5t33.5 -73.5q0 -24 -14 -43.5t-48 -52.5zM626 -24h-104q-68 0 -126 13q-3 -2 -8 -6t-18 -18t-22.5 -29.5
t-17.5 -39.5t-8 -49q0 -66 55.5 -106.5t165.5 -40.5q127 0 194 44.5t67 112.5q0 119 -178 119zM373 680q0 -79 48.5 -125.5t131.5 -46.5t130 45.5t47 122.5q0 79 -48.5 125.5t-132.5 46.5q-82 0 -129 -45.5t-47 -122.5zM538 1365l-190 -127q-30 -20 -53 -20
q-33 0 -57.5 25.5t-24.5 58.5q0 32 39 68l188 171q52 47 108 47q58 0 107 -46l184 -172q33 -30 33 -60q0 -37 -27 -63.5t-61 -26.5q-27 0 -56 20z" />
    <glyph glyph-name="Gbreve" unicode="&#x11e;" horiz-adv-x="1400" 
d="M1006 544h-189q-43 0 -67.5 28t-24.5 77q0 48 24.5 76t67.5 28h335q56 0 86.5 -30.5t30.5 -86.5v-408q0 -48 -13 -79t-43 -57q-49 -43 -159 -77.5t-269 -34.5q-326 0 -510 178.5t-184 495.5q0 340 199 541t552 201q134 0 233 -34.5t139 -74.5q39 -39 39 -95
q0 -44 -27.5 -71.5t-69.5 -27.5q-20 0 -50.5 12.5t-61.5 28t-92 28t-136 12.5q-201 0 -320 -127.5t-119 -361.5q0 -238 119 -365t328 -127q56 0 101.5 8t62.5 16l18 8v319zM427 1757q0 44 24.5 68t66.5 24q70 0 82 -65q20 -112 148 -112t149 112q12 65 82 65q42 0 66.5 -24
t24.5 -68q0 -116 -97 -193t-231 -77q-138 0 -226.5 76t-88.5 194z" />
    <glyph glyph-name="gbreve" unicode="&#x11f;" horiz-adv-x="1088" 
d="M985 1008l-94 -88q98 -93 98 -226q0 -168 -118 -271t-332 -103q-67 0 -121 15q-43 -35 -43 -79q0 -43 38 -64.5t137 -21.5h124q199 0 297 -75.5t98 -210.5q0 -162 -144.5 -269t-404.5 -107q-238 0 -354.5 84t-116.5 216q0 49 16.5 93t39.5 72t46 49.5t39 30.5l17 9
q-72 63 -72 157q0 52 26.5 99.5t52.5 69.5l26 22q-127 98 -127 252q0 167 118.5 270.5t332.5 103.5q86 0 163 -25l114 139q27 33 48 46t48 13q43 0 76.5 -31.5t33.5 -73.5q0 -24 -14 -43.5t-48 -52.5zM626 -24h-104q-68 0 -126 13q-3 -2 -8 -6t-18 -18t-22.5 -29.5
t-17.5 -39.5t-8 -49q0 -66 55.5 -106.5t165.5 -40.5q127 0 194 44.5t67 112.5q0 119 -178 119zM373 680q0 -79 48.5 -125.5t131.5 -46.5t130 45.5t47 122.5q0 79 -48.5 125.5t-132.5 46.5q-82 0 -129 -45.5t-47 -122.5zM231 1427q0 43 24.5 66t65.5 23q67 0 79 -61
q21 -126 140 -126q120 0 140 126q11 61 79 61q41 0 65.5 -23t24.5 -66q0 -119 -88.5 -198.5t-228.5 -79.5q-129 0 -215 74.5t-86 203.5z" />
    <glyph glyph-name="Gdotaccent" unicode="&#x120;" horiz-adv-x="1400" 
d="M1006 544h-189q-43 0 -67.5 28t-24.5 77q0 48 24.5 76t67.5 28h335q56 0 86.5 -30.5t30.5 -86.5v-408q0 -48 -13 -79t-43 -57q-49 -43 -159 -77.5t-269 -34.5q-326 0 -510 178.5t-184 495.5q0 340 199 541t552 201q134 0 233 -34.5t139 -74.5q39 -39 39 -95
q0 -44 -27.5 -71.5t-69.5 -27.5q-20 0 -50.5 12.5t-61.5 28t-92 28t-136 12.5q-201 0 -320 -127.5t-119 -361.5q0 -238 119 -365t328 -127q56 0 101.5 8t62.5 16l18 8v319zM601 1661q0 64 43.5 107t109.5 43t107.5 -41t41.5 -105t-43.5 -108t-108.5 -44q-66 0 -108 41.5
t-42 106.5z" />
    <glyph glyph-name="gdotaccent" unicode="&#x121;" horiz-adv-x="1088" 
d="M985 1008l-94 -88q98 -93 98 -226q0 -168 -118 -271t-332 -103q-67 0 -121 15q-43 -35 -43 -79q0 -43 38 -64.5t137 -21.5h124q199 0 297 -75.5t98 -210.5q0 -162 -144.5 -269t-404.5 -107q-238 0 -354.5 84t-116.5 216q0 49 16.5 93t39.5 72t46 49.5t39 30.5l17 9
q-72 63 -72 157q0 52 26.5 99.5t52.5 69.5l26 22q-127 98 -127 252q0 167 118.5 270.5t332.5 103.5q86 0 163 -25l114 139q27 33 48 46t48 13q43 0 76.5 -31.5t33.5 -73.5q0 -24 -14 -43.5t-48 -52.5zM626 -24h-104q-68 0 -126 13q-3 -2 -8 -6t-18 -18t-22.5 -29.5
t-17.5 -39.5t-8 -49q0 -66 55.5 -106.5t165.5 -40.5q127 0 194 44.5t67 112.5q0 119 -178 119zM373 680q0 -79 48.5 -125.5t131.5 -46.5t130 45.5t47 122.5q0 79 -48.5 125.5t-132.5 46.5q-82 0 -129 -45.5t-47 -122.5zM398 1321q0 63 43.5 106t108.5 43t106.5 -41
t41.5 -104t-43 -106.5t-108 -43.5t-107 41t-42 105z" />
    <glyph glyph-name="Gcommaaccent" unicode="&#x122;" horiz-adv-x="1400" 
d="M1006 544h-189q-43 0 -67.5 28t-24.5 77q0 48 24.5 76t67.5 28h335q56 0 86.5 -30.5t30.5 -86.5v-408q0 -48 -13 -79t-43 -57q-49 -43 -159 -77.5t-269 -34.5q-326 0 -510 178.5t-184 495.5q0 340 199 541t552 201q134 0 233 -34.5t139 -74.5q39 -39 39 -95
q0 -44 -27.5 -71.5t-69.5 -27.5q-20 0 -50.5 12.5t-61.5 28t-92 28t-136 12.5q-201 0 -320 -127.5t-119 -361.5q0 -238 119 -365t328 -127q56 0 101.5 8t62.5 16l18 8v319zM628 -235q0 56 40 94t100 38t95 -36.5t35 -97.5q0 -59 -36 -110.5t-91 -83t-115.5 -49.5t-113.5 -18
t-80 19t-27 52q0 26 17 43q18 18 86 38.5t107 57.5q-17 22 -17 53z" />
    <glyph glyph-name="gcommaaccent" unicode="&#x123;" horiz-adv-x="1088" 
d="M985 1008l-94 -88q98 -93 98 -226q0 -168 -118 -271t-332 -103q-67 0 -121 15q-43 -35 -43 -79q0 -43 38 -64.5t137 -21.5h124q199 0 297 -75.5t98 -210.5q0 -162 -144.5 -269t-404.5 -107q-238 0 -354.5 84t-116.5 216q0 49 16.5 93t39.5 72t46 49.5t39 30.5l17 9
q-72 63 -72 157q0 52 26.5 99.5t52.5 69.5l26 22q-127 98 -127 252q0 167 118.5 270.5t332.5 103.5q86 0 163 -25l114 139q27 33 48 46t48 13q43 0 76.5 -31.5t33.5 -73.5q0 -24 -14 -43.5t-48 -52.5zM626 -24h-104q-68 0 -126 13q-3 -2 -8 -6t-18 -18t-22.5 -29.5
t-17.5 -39.5t-8 -49q0 -66 55.5 -106.5t165.5 -40.5q127 0 194 44.5t67 112.5q0 119 -178 119zM373 680q0 -79 48.5 -125.5t131.5 -46.5t130 45.5t47 122.5q0 79 -48.5 125.5t-132.5 46.5q-82 0 -129 -45.5t-47 -122.5zM406 1273q0 59 36 110.5t91 83t115.5 49.5t113.5 18
t80 -19t27 -52q0 -26 -17 -43q-18 -18 -86 -38.5t-107 -57.5q17 -22 17 -53q0 -56 -40 -94t-100 -38t-95 36.5t-35 97.5z" />
    <glyph glyph-name="Hcircumflex" unicode="&#x124;" horiz-adv-x="1442" 
d="M444 590v-474q0 -123 -140 -123q-139 0 -139 123v1146q0 123 139 123q140 0 140 -123v-447h554v447q0 123 140 123q69 0 104 -32t35 -91v-1146q0 -123 -139 -123q-140 0 -140 123v474h-554zM716 1631l-190 -127q-30 -20 -53 -20q-33 0 -57.5 25.5t-24.5 58.5q0 32 39 68
l188 171q52 47 108 47q58 0 107 -46l184 -172q33 -30 33 -60q0 -37 -27 -63.5t-61 -26.5q-27 0 -56 20z" />
    <glyph glyph-name="hcircumflex" unicode="&#x125;" horiz-adv-x="1225" 
d="M147 113v1249q0 120 136 120t136 -120v-301q0 -71 -9 -154h3q4 5 11.5 14t34 31t57 39t81.5 31t107 14q179 0 281 -108.5t102 -307.5v-507q0 -120 -136 -120t-136 120v475q0 231 -183 231q-40 0 -76.5 -15t-60 -36.5t-42 -43t-26.5 -36.5l-8 -15v-560q0 -120 -136 -120
t-136 120zM280 1696l-190 -127q-30 -20 -53 -20q-33 0 -57.5 25.5t-24.5 58.5q0 32 39 68l188 171q52 47 108 47q58 0 107 -46l184 -172q33 -30 33 -60q0 -37 -27 -63.5t-61 -26.5q-27 0 -56 20z" />
    <glyph glyph-name="Hbar" unicode="&#x126;" horiz-adv-x="1518" 
d="M482 552v-436q0 -59 -35 -91t-105 -32q-139 0 -139 123v827h-82q-39 0 -62 25.5t-23 72.5q0 46 22.5 71t62.5 25h82v125q0 123 139 123q70 0 105 -32t35 -91v-125h554v125q0 59 35 91t104 32q70 0 105 -32t35 -91v-125h81q40 0 63 -24.5t23 -70.5q0 -47 -23 -73t-63 -26
h-81v-827q0 -123 -140 -123q-139 0 -139 123v436h-554zM482 943v-173h554v173h-554z" />
    <glyph glyph-name="hbar" unicode="&#x127;" horiz-adv-x="1235" 
d="M156 1144h-75q-37 0 -59.5 23.5t-22.5 66.5t22 66t60 23h75v73q0 45 36.5 69t99.5 24t99.5 -24t36.5 -69v-73h195q38 0 60 -23t22 -66t-22 -66.5t-60 -23.5h-195v-114q0 -71 -9 -134h3q4 5 11.5 14t34 31.5t57 39.5t81.5 31t107 14q179 0 281 -108.5t102 -308.5v-496
q0 -120 -136 -120t-136 120v464q0 231 -183 231q-40 0 -76.5 -15t-60 -36.5t-42 -43t-26.5 -36.5l-8 -15v-549q0 -120 -136 -120t-136 120v1031z" />
    <glyph glyph-name="Itilde" unicode="&#x128;" horiz-adv-x="608" 
d="M165 116v1146q0 123 139 123q140 0 140 -123v-1146q0 -123 -140 -123q-139 0 -139 123zM154 1605q-28 0 -50.5 -12.5t-34.5 -27t-31 -27t-40 -12.5q-34 0 -55.5 21t-21.5 61q0 65 71.5 130t177.5 65q46 0 91 -15t74.5 -33.5t63.5 -33.5t61 -15q28 0 50.5 12.5t34.5 27.5
t31 27.5t40 12.5q34 0 55.5 -21t21.5 -61q0 -65 -71.5 -130t-177.5 -65q-58 0 -113 24t-100 48t-77 24z" />
    <glyph glyph-name="itilde" unicode="&#x129;" horiz-adv-x="565" 
d="M147 113v791q0 120 136 120t136 -120v-791q0 -120 -136 -120t-136 120zM156 1270q-23 0 -41 -13t-29 -29t-29 -29t-41 -13q-33 0 -54 22t-21 61q0 71 64.5 134.5t160.5 63.5q57 0 105 -25.5t82.5 -50.5t60.5 -25q23 0 41 13t29 29t29 29t41 13q33 0 54.5 -21.5
t21.5 -60.5q0 -71 -64.5 -135t-161.5 -64q-45 0 -85 16t-63.5 34.5t-50.5 34.5t-49 16z" />
    <glyph glyph-name="Imacron" unicode="&#x12a;" horiz-adv-x="608" 
d="M165 116v1146q0 123 139 123q140 0 140 -123v-1146q0 -123 -140 -123q-139 0 -139 123zM41 1746h526q87 0 87 -97q0 -96 -87 -96h-526q-87 0 -87 96q0 97 87 97z" />
    <glyph glyph-name="imacron" unicode="&#x12b;" horiz-adv-x="565" 
d="M147 113v791q0 120 136 120t136 -120v-791q0 -120 -136 -120t-136 120zM61 1411h442q86 0 86 -96q0 -46 -22.5 -70.5t-63.5 -24.5h-442q-41 0 -63.5 24t-22.5 70q0 97 86 97z" />
    <glyph glyph-name="Ibreve" unicode="&#x12c;" horiz-adv-x="608" 
d="M165 116v1146q0 123 139 123q140 0 140 -123v-1146q0 -123 -140 -123q-139 0 -139 123zM-18 1757q0 44 24.5 68t66.5 24q70 0 82 -65q20 -112 148 -112t149 112q12 65 82 65q42 0 66.5 -24t24.5 -68q0 -116 -97 -193t-231 -77q-138 0 -226.5 76t-88.5 194z" />
    <glyph glyph-name="ibreve" unicode="&#x12d;" horiz-adv-x="565" 
d="M147 113v791q0 120 136 120t136 -120v-791q0 -120 -136 -120t-136 120zM-14 1414q0 43 24.5 66t66.5 23q66 0 78 -61q10 -62 40 -94t89 -32q110 0 130 126q11 61 78 61q41 0 65.5 -23t24.5 -66q0 -119 -85.5 -198.5t-220.5 -79.5q-125 0 -207.5 74.5t-82.5 203.5z" />
    <glyph glyph-name="Iogonek" unicode="&#x12e;" horiz-adv-x="608" 
d="M165 116v1146q0 123 139 123q140 0 140 -123v-1146q0 -59 -46 -105q-47 -47 -82 -113t-35 -127q0 -83 72 -83q23 0 50 7.5t40 7.5q28 0 46 -18t18 -47q0 -40 -29 -69q-27 -26 -79.5 -43.5t-118.5 -17.5q-116 0 -177 54t-61 150q0 78 51.5 162t121.5 140q-50 30 -50 102z
" />
    <glyph glyph-name="iogonek" unicode="&#x12f;" horiz-adv-x="565" 
d="M147 113v791q0 120 136 120t136 -120v-791q0 -33 -9 -53t-34 -47q-49 -53 -83 -117t-34 -125q0 -83 72 -83q23 0 50 7.5t40 7.5q29 0 47 -18t18 -47q0 -39 -30 -69q-26 -26 -78.5 -43.5t-119.5 -17.5q-116 0 -176.5 54t-60.5 150q0 79 51.5 163.5t121.5 139.5
q-47 30 -47 98zM120 1317q0 68 46 112t119 44q70 0 115.5 -44t45.5 -108q0 -67 -46 -111.5t-119 -44.5q-70 0 -115.5 44t-45.5 108z" />
    <glyph glyph-name="Idotaccent" unicode="&#x130;" horiz-adv-x="608" 
d="M165 116v1146q0 123 139 123q140 0 140 -123v-1146q0 -123 -140 -123q-139 0 -139 123zM155 1661q0 64 43.5 107t109.5 43t107.5 -41t41.5 -105t-43.5 -108t-108.5 -44q-66 0 -108 41.5t-42 106.5z" />
    <glyph glyph-name="dotlessi" unicode="&#x131;" horiz-adv-x="565" 
d="M147 113v791q0 120 136 120t136 -120v-791q0 -120 -136 -120t-136 120z" />
    <glyph glyph-name="IJ" unicode="&#x132;" horiz-adv-x="1225" 
d="M165 116v1146q0 123 139 123q140 0 140 -123v-1146q0 -123 -140 -123q-139 0 -139 123zM781 119v1143q0 59 35 91t105 32q139 0 139 -123v-1082q0 -176 -33 -277t-104 -172q-56 -56 -123.5 -85.5t-132.5 -29.5q-59 0 -90.5 28t-31.5 74q0 63 56 93q37 20 60 36t48.5 42
t39.5 55.5t23 74t9 100.5z" />
    <glyph glyph-name="ij" unicode="&#x133;" horiz-adv-x="1134" 
d="M147 113v791q0 120 136 120t136 -120v-791q0 -120 -136 -120t-136 120zM120 1317q0 68 46 112t119 44q70 0 115.5 -44t45.5 -108q0 -67 -46 -111.5t-119 -44.5q-70 0 -115.5 44t-45.5 108zM715 26v878q0 120 135 120q136 0 136 -120v-891q0 -258 -132 -388
q-105 -105 -223 -105q-54 0 -86.5 27.5t-32.5 72.5q0 48 44 83q43 31 69 56.5t48.5 63t32 86.5t9.5 117zM687 1317q0 67 46 111.5t119 44.5q70 0 116 -44t46 -108q0 -67 -46.5 -111.5t-119.5 -44.5q-70 0 -115.5 44t-45.5 108z" />
    <glyph glyph-name="Jcircumflex" unicode="&#x134;" horiz-adv-x="617" 
d="M173 119v1143q0 59 35 91t105 32q139 0 139 -123v-1082q0 -176 -33 -277t-104 -172q-56 -56 -123.5 -85.5t-132.5 -29.5q-59 0 -90.5 28t-31.5 74q0 63 56 93q37 20 60 36t48.5 42t39.5 55.5t23 74t9 100.5zM308 1631l-190 -127q-30 -20 -53 -20q-33 0 -57.5 25.5
t-24.5 58.5q0 32 39 68l188 171q52 47 108 47q58 0 107 -46l184 -172q33 -30 33 -60q0 -37 -27 -63.5t-61 -26.5q-27 0 -56 20z" />
    <glyph glyph-name="jcircumflex" unicode="&#x135;" horiz-adv-x="568" 
d="M150 26v878q0 120 135 120q136 0 136 -120v-891q0 -258 -132 -388q-105 -105 -223 -105q-54 0 -86.5 27.5t-32.5 72.5q0 48 44 83q43 31 69 56.5t48.5 63t32 86.5t9.5 117zM278 1304l-174 -138q-31 -24 -55 -24q-33 0 -58 25t-25 58q0 25 31 58l191 197q47 47 97 47
q55 0 98 -46l183 -190q33 -34 33 -59q0 -35 -27.5 -62t-62.5 -27q-29 0 -59 24z" />
    <glyph glyph-name="Kcommaaccent" unicode="&#x136;" horiz-adv-x="1221" 
d="M444 743l463 567q19 24 36 41q37 37 86 37q58 0 103 -39t45 -92q0 -43 -34 -81l-407 -452l407 -495q44 -52 44 -97q0 -56 -48.5 -99t-107.5 -43q-53 0 -88 35q-11 11 -41 49l-458 583v-541q0 -123 -140 -123q-139 0 -139 123v1146q0 123 139 123q140 0 140 -123v-519z
M523 -235q0 56 40 94t100 38t95 -36.5t35 -97.5q0 -59 -36 -110.5t-91 -83t-115.5 -49.5t-113.5 -18t-80 19t-27 52q0 26 17 43q18 18 86 38.5t107 57.5q-17 22 -17 53z" />
    <glyph glyph-name="kcommaaccent" unicode="&#x137;" horiz-adv-x="1076" 
d="M419 589l330 362q28 32 41 43q36 33 84 33q54 0 96 -38.5t42 -87.5q0 -44 -43 -87l-260 -253l282 -349q37 -45 37 -88q0 -56 -46.5 -95t-102.5 -39q-49 0 -85 36q-15 15 -39 47l-336 450v-410q0 -58 -34.5 -89t-101.5 -31t-101.5 31t-34.5 89v1249q0 120 136 120
t136 -120v-773zM464 -235q0 56 40 94t100 38t95 -36.5t35 -97.5q0 -59 -36 -110.5t-91 -83t-115.5 -49.5t-113.5 -18t-80 19t-27 52q0 26 17 43q18 18 86 38.5t107 57.5q-17 22 -17 53z" />
    <glyph glyph-name="kgreenlandic" unicode="&#x138;" horiz-adv-x="1070" 
d="M419 555l338 403q20 24 28 32q37 37 87 37q54 0 96.5 -38t42.5 -86q0 -46 -45 -93l-260 -276l270 -314q47 -55 47 -98q0 -51 -45 -91.5t-104 -40.5q-49 0 -89 40q-20 20 -39 44l-327 416v-377q0 -58 -34.5 -89t-101.5 -31t-101.5 31t-34.5 89v791q0 120 136 120t136 -120
v-349z" />
    <glyph glyph-name="Lacute" unicode="&#x139;" horiz-adv-x="1007" 
d="M444 224h445q46 0 72 -28.5t26 -83.5t-25.5 -83.5t-72.5 -28.5h-597q-61 0 -94 33.5t-33 93.5v1135q0 123 139 123q140 0 140 -123v-1038zM308 1642l237 196q30 26 60 26q48 0 86 -47t38 -97q0 -45 -55 -76l-265 -149q-28 -15 -50 -15q-37 0 -63.5 30.5t-26.5 67.5
q0 32 39 64z" />
    <glyph glyph-name="lacute" unicode="&#x13a;" horiz-adv-x="613" 
d="M143 261v1101q0 120 136 120t136 -120v-1029q0 -74 18 -103.5t53 -29.5q10 0 25 1.5t22 1.5q28 0 47 -21t19 -57q0 -52 -32 -84q-52 -52 -166 -52q-258 0 -258 272zM154 1744l237 196q30 26 60 26q48 0 86 -47t38 -97q0 -45 -55 -76l-265 -149q-28 -15 -50 -15
q-37 0 -63.5 30.5t-26.5 67.5q0 32 39 64z" />
    <glyph glyph-name="Lcommaaccent" unicode="&#x13b;" horiz-adv-x="1007" 
d="M444 224h445q46 0 72 -28.5t26 -83.5t-25.5 -83.5t-72.5 -28.5h-597q-61 0 -94 33.5t-33 93.5v1135q0 123 139 123q140 0 140 -123v-1038zM454 -235q0 56 40 94t100 38t95 -36.5t35 -97.5q0 -59 -36 -110.5t-91 -83t-115.5 -49.5t-113.5 -18t-80 19t-27 52q0 26 17 43
q18 18 86 38.5t107 57.5q-17 22 -17 53z" />
    <glyph glyph-name="lcommaaccent" unicode="&#x13c;" horiz-adv-x="613" 
d="M143 261v1101q0 120 136 120t136 -120v-1029q0 -74 18 -103.5t53 -29.5q10 0 25 1.5t22 1.5q28 0 47 -21t19 -57q0 -52 -32 -84q-52 -52 -166 -52q-258 0 -258 272zM222 -235q0 56 40 94t100 38t95 -36.5t35 -97.5q0 -59 -36 -110.5t-91 -83t-115.5 -49.5t-113.5 -18
t-80 19t-27 52q0 26 17 43q18 18 86 38.5t107 57.5q-17 22 -17 53z" />
    <glyph glyph-name="Lcaron" unicode="&#x13d;" horiz-adv-x="1007" 
d="M444 224h445q46 0 72 -28.5t26 -83.5t-25.5 -83.5t-72.5 -28.5h-597q-61 0 -94 33.5t-33 93.5v1135q0 123 139 123q140 0 140 -123v-1038zM310 1712l189 127q31 20 54 20q33 0 57.5 -25.5t24.5 -58.5q0 -32 -40 -68l-188 -171q-52 -47 -107 -47q-58 0 -108 47l-183 171
q-33 30 -33 61q0 36 27 63t61 27q24 0 56 -21z" />
    <glyph glyph-name="lcaron" unicode="&#x13e;" horiz-adv-x="722" 
d="M143 261v1101q0 120 136 120t136 -120v-1029q0 -74 18 -103.5t53 -29.5q10 0 25 1.5t22 1.5q28 0 47 -21t19 -57q0 -52 -32 -84q-52 -52 -166 -52q-258 0 -258 272zM520 1261l66 251q11 43 33.5 63t62.5 20q50 0 89.5 -27.5t39.5 -67.5q0 -21 -16 -54l-117 -253
q-23 -51 -77 -51q-36 0 -62.5 19.5t-26.5 51.5q0 20 8 48z" />
    <glyph glyph-name="Ldot" unicode="&#x13f;" horiz-adv-x="1046" 
d="M444 224h445q46 0 72 -28.5t26 -83.5t-25.5 -83.5t-72.5 -28.5h-597q-61 0 -94 33.5t-33 93.5v1135q0 123 139 123q140 0 140 -123v-1038zM654 769q0 75 49 124t123 49t121 -47t47 -121t-49 -123t-123 -49t-121 46.5t-47 120.5z" />
    <glyph glyph-name="ldot" unicode="&#x140;" horiz-adv-x="925" 
d="M143 261v1101q0 120 136 120t136 -120v-1029q0 -74 18 -103.5t53 -29.5q10 0 25 1.5t22 1.5q28 0 47 -21t19 -57q0 -52 -32 -84q-52 -52 -166 -52q-258 0 -258 272zM567 709q0 75 49 124t123 49t121 -47t47 -121t-49 -123t-123 -49t-121 46.5t-47 120.5z" />
    <glyph glyph-name="Lslash" unicode="&#x141;" horiz-adv-x="1057" 
d="M493 224h446q46 0 72 -28.5t26 -83.5t-25.5 -83.5t-72.5 -28.5h-597q-61 0 -94 33.5t-33 93.5v530l-44 -20q-30 -13 -51 -13q-40 0 -66 35t-26 76q0 38 23 61q13 13 59 33l105 44v389q0 123 139 123t139 -123v-277l121 53q42 18 62 18q40 0 65.5 -35t25.5 -76
q0 -39 -23 -62q-13 -12 -59 -32l-192 -82v-545z" />
    <glyph glyph-name="lslash" unicode="&#x142;" horiz-adv-x="685" 
d="M193 774l-53 -24q-25 -10 -39 -10q-38 0 -64.5 34.5t-26.5 75.5q0 31 15 51t50 35l118 52v374q0 58 34.5 89t101.5 31q136 0 136 -120v-256l80 35q23 9 38 9q38 0 64.5 -34t26.5 -76q0 -31 -14.5 -50.5t-50.5 -35.5l-144 -63v-558q0 -74 18 -103.5t53 -29.5q10 0 25 1.5
t22 1.5q28 0 47 -21t19 -57q0 -52 -32 -84q-50 -52 -165 -52q-259 0 -259 272v513z" />
    <glyph glyph-name="Nacute" unicode="&#x143;" horiz-adv-x="1508" 
d="M165 104v1091q0 190 193 190q82 0 126.5 -34t93.5 -114l432 -703q27 -45 53.5 -96t39.5 -80l13 -28l5 2q-14 119 -17 244l-12 698q-2 52 31 81.5t95 29.5q61 0 93 -29t32 -82v-1090q0 -191 -193 -191q-83 0 -128 34t-93 114l-431 703q-27 45 -53.5 96t-40.5 80l-13 28
l-4 -2q14 -119 17 -244l12 -698q2 -52 -31 -81.5t-95 -29.5q-61 0 -93 29t-32 82zM680 1642l237 196q30 26 60 26q48 0 86 -47t38 -97q0 -45 -55 -76l-265 -149q-28 -15 -50 -15q-37 0 -63.5 30.5t-26.5 67.5q0 32 39 64z" />
    <glyph glyph-name="nacute" unicode="&#x144;" horiz-adv-x="1225" 
d="M147 113v801q0 55 29 84t84 29q105 0 119 -96l8 -51h4l11 16.5t35 37.5t60.5 47.5t88.5 37.5t118 17q179 0 281 -108.5t102 -307.5v-507q0 -120 -136 -120t-136 120v475q0 231 -183 231q-40 0 -76.5 -15t-60 -36.5t-42 -43t-26.5 -36.5l-8 -15v-560q0 -120 -136 -120
t-136 120zM524 1288l174 216q35 45 76 45q47 0 89 -40t42 -89q0 -8 -1.5 -15t-5 -13.5t-6 -11t-9 -11l-9 -9t-10.5 -9t-10 -8.5l-208 -179q-29 -25 -59 -25q-38 0 -65.5 27.5t-27.5 62.5q0 11 5.5 23t8.5 16t16 20z" />
    <glyph glyph-name="Ncommaaccent" unicode="&#x145;" horiz-adv-x="1508" 
d="M165 104v1091q0 190 193 190q82 0 126.5 -34t93.5 -114l432 -703q27 -45 53.5 -96t39.5 -80l13 -28l5 2q-14 119 -17 244l-12 698q-2 52 31 81.5t95 29.5q61 0 93 -29t32 -82v-1090q0 -191 -193 -191q-83 0 -128 34t-93 114l-431 703q-27 45 -53.5 96t-40.5 80l-13 28
l-4 -2q14 -119 17 -244l12 -698q2 -52 -31 -81.5t-95 -29.5q-61 0 -93 29t-32 82zM647 -235q0 56 40 94t100 38t95 -36.5t35 -97.5q0 -59 -36 -110.5t-91 -83t-115.5 -49.5t-113.5 -18t-80 19t-27 52q0 26 17 43q18 18 86 38.5t107 57.5q-17 22 -17 53z" />
    <glyph glyph-name="ncommaaccent" unicode="&#x146;" horiz-adv-x="1225" 
d="M147 113v801q0 55 29 84t84 29q105 0 119 -96l8 -51h4l11 16.5t35 37.5t60.5 47.5t88.5 37.5t118 17q179 0 281 -108.5t102 -307.5v-507q0 -120 -136 -120t-136 120v475q0 231 -183 231q-40 0 -76.5 -15t-60 -36.5t-42 -43t-26.5 -36.5l-8 -15v-560q0 -120 -136 -120
t-136 120zM477 -235q0 56 40 94t100 38t95 -36.5t35 -97.5q0 -59 -36 -110.5t-91 -83t-115.5 -49.5t-113.5 -18t-80 19t-27 52q0 26 17 43q18 18 86 38.5t107 57.5q-17 22 -17 53z" />
    <glyph glyph-name="Ncaron" unicode="&#x147;" horiz-adv-x="1508" 
d="M165 104v1091q0 190 193 190q82 0 126.5 -34t93.5 -114l432 -703q27 -45 53.5 -96t39.5 -80l13 -28l5 2q-14 119 -17 244l-12 698q-2 52 31 81.5t95 29.5q61 0 93 -29t32 -82v-1090q0 -191 -193 -191q-83 0 -128 34t-93 114l-431 703q-27 45 -53.5 96t-40.5 80l-13 28
l-4 -2q14 -119 17 -244l12 -698q2 -52 -31 -81.5t-95 -29.5q-61 0 -93 29t-32 82zM769 1712l189 127q31 20 54 20q33 0 57.5 -25.5t24.5 -58.5q0 -32 -40 -68l-188 -171q-52 -47 -107 -47q-58 0 -108 47l-183 171q-33 30 -33 61q0 36 27 63t61 27q24 0 56 -21z" />
    <glyph glyph-name="ncaron" unicode="&#x148;" horiz-adv-x="1225" 
d="M147 113v801q0 55 29 84t84 29q105 0 119 -96l8 -51h4l11 16.5t35 37.5t60.5 47.5t88.5 37.5t118 17q179 0 281 -108.5t102 -307.5v-507q0 -120 -136 -120t-136 120v475q0 231 -183 231q-40 0 -76.5 -15t-60 -36.5t-42 -43t-26.5 -36.5l-8 -15v-560q0 -120 -136 -120
t-136 120zM607 1364l174 138q31 24 55 24q33 0 58 -25t25 -58q0 -27 -31 -58l-191 -197q-45 -47 -97 -47q-51 0 -97 46l-184 190q-33 34 -33 59q0 35 27.5 62t62.5 27q29 0 59 -24z" />
    <glyph glyph-name="napostrophe" unicode="&#x149;" horiz-adv-x="1370" 
d="M292 113v801q0 55 29 84t84 29q105 0 119 -96l8 -51h4l11 16.5t35 37.5t60.5 47.5t88.5 37.5t118 17q179 0 281 -108.5t102 -307.5v-507q0 -120 -136 -120t-136 120v475q0 231 -183 231q-40 0 -76.5 -15t-60 -36.5t-42 -43t-26.5 -36.5l-8 -15v-560q0 -120 -136 -120
t-136 120zM56 1470q0 55 40 92t100 37q61 0 98.5 -39t37.5 -106q0 -76 -37 -149.5t-93 -129.5q-61 -61 -117 -61q-28 0 -45 14.5t-17 40.5q0 23 17 44.5t43 58.5t42 87q-29 12 -49 41t-20 70z" />
    <glyph glyph-name="Eng" unicode="&#x14a;" horiz-adv-x="1508" 
d="M165 104v1091q0 190 193 190q82 0 126.5 -34t93.5 -114l432 -703q27 -45 53.5 -96t39.5 -80l13 -28l5 2q-14 119 -17 244l-12 698q-2 52 31 81.5t95 29.5q61 0 93 -29t32 -82v-1192q0 -176 -33 -277t-104 -172q-56 -56 -124 -85.5t-133 -29.5q-58 0 -90 27.5t-32 71.5
q0 59 56 91q39 22 62.5 37t51.5 39.5t42.5 51t25 65.5t10.5 88v13q-42 12 -74 42.5t-72 96.5l-431 703q-27 45 -53.5 96t-40.5 80l-13 28l-4 -2q14 -119 17 -244l12 -698q2 -52 -31 -81.5t-95 -29.5q-61 0 -93 29t-32 82z" />
    <glyph glyph-name="eng" unicode="&#x14b;" horiz-adv-x="1220" 
d="M147 113v801q0 55 29 84t84 29q105 0 119 -96l8 -51h4l11 16.5t35 37.5t61 47.5t88.5 37.5t118.5 17q102 0 177 -34t119 -97t65 -144t21 -182v-236q0 -217 -18 -359t-48.5 -218t-81.5 -134q-44 -50 -101.5 -81t-116.5 -31q-53 0 -81.5 27t-28.5 70q0 58 53 92
q34 22 53 40.5t41 58t32.5 97.5t17.5 154t7 233v235q0 71 -7.5 120.5t-26.5 90.5t-56 61t-93 20q-40 0 -76.5 -15t-60 -36.5t-42 -43t-26.5 -36.5l-8 -15v-560q0 -120 -136 -120t-136 120z" />
    <glyph glyph-name="Omacron" unicode="&#x14c;" horiz-adv-x="1512" 
d="M91 670q0 339 185.5 534t492.5 195q297 0 474.5 -185t177.5 -506q0 -338 -185 -533t-492 -195q-297 0 -475 185t-178 505zM377 691q0 -232 108 -361t273 -129t271 127.5t106 358.5q0 232 -107.5 361t-273.5 129q-165 0 -271 -127.5t-106 -358.5zM490 1746h526
q87 0 87 -97q0 -96 -87 -96h-526q-87 0 -87 96q0 97 87 97z" />
    <glyph glyph-name="omacron" unicode="&#x14d;" horiz-adv-x="1213" 
d="M84 491q0 256 143.5 401t391.5 145q230 0 369.5 -140t139.5 -371q0 -256 -143 -401t-391 -145q-230 0 -370 140t-140 371zM361 511q0 -153 70 -237.5t178 -84.5q107 0 175 82.5t68 235.5q0 152 -70 236.5t-177 84.5q-108 0 -176 -82t-68 -235zM346 1411h520q86 0 86 -96
q0 -46 -22.5 -70.5t-63.5 -24.5h-520q-41 0 -63.5 24.5t-22.5 70.5q0 96 86 96z" />
    <glyph glyph-name="Obreve" unicode="&#x14e;" horiz-adv-x="1512" 
d="M91 670q0 339 185.5 534t492.5 195q297 0 474.5 -185t177.5 -506q0 -338 -185 -533t-492 -195q-297 0 -475 185t-178 505zM377 691q0 -232 108 -361t273 -129t271 127.5t106 358.5q0 232 -107.5 361t-273.5 129q-165 0 -271 -127.5t-106 -358.5zM433 1757q0 44 24.5 68
t66.5 24q70 0 82 -65q20 -112 148 -112t149 112q12 65 82 65q42 0 66.5 -24t24.5 -68q0 -116 -97 -193t-231 -77q-138 0 -226.5 76t-88.5 194z" />
    <glyph glyph-name="obreve" unicode="&#x14f;" horiz-adv-x="1213" 
d="M84 491q0 256 143.5 401t391.5 145q230 0 369.5 -140t139.5 -371q0 -256 -143 -401t-391 -145q-230 0 -370 140t-140 371zM361 511q0 -153 70 -237.5t178 -84.5q107 0 175 82.5t68 235.5q0 152 -70 236.5t-177 84.5q-108 0 -176 -82t-68 -235zM296 1414q0 43 24.5 66
t65.5 23q67 0 79 -61q21 -126 140 -126q120 0 140 126q11 61 79 61q41 0 65.5 -23t24.5 -66q0 -119 -88.5 -198.5t-228.5 -79.5q-129 0 -215 74.5t-86 203.5z" />
    <glyph glyph-name="Ohungarumlaut" unicode="&#x150;" horiz-adv-x="1512" 
d="M91 670q0 339 185.5 534t492.5 195q297 0 474.5 -185t177.5 -506q0 -338 -185 -533t-492 -195q-297 0 -475 185t-178 505zM377 691q0 -232 108 -361t273 -129t271 127.5t106 358.5q0 232 -107.5 361t-273.5 129q-165 0 -271 -127.5t-106 -358.5zM485 1604l173 218
q37 46 76 46q47 0 87 -36.5t40 -79.5q0 -30 -38 -64l-216 -191q-31 -28 -57 -28q-33 0 -60.5 25t-27.5 58q0 22 23 52zM889 1610l214 181q38 32 67 32q46 0 82.5 -42t36.5 -90q0 -27 -14 -44t-46 -35l-241 -136q-27 -16 -51 -16q-33 0 -58 27.5t-25 60.5t35 62z" />
    <glyph glyph-name="ohungarumlaut" unicode="&#x151;" horiz-adv-x="1213" 
d="M84 491q0 256 143.5 401t391.5 145q230 0 369.5 -140t139.5 -371q0 -256 -143 -401t-391 -145q-230 0 -370 140t-140 371zM361 511q0 -153 70 -237.5t178 -84.5q107 0 175 82.5t68 235.5q0 152 -70 236.5t-177 84.5q-108 0 -176 -82t-68 -235zM341 1276l144 231
q19 30 36.5 42.5t44.5 12.5q49 0 89 -34.5t40 -76.5q0 -28 -35 -66l-179 -200q-36 -39 -70 -39q-35 0 -62.5 23t-27.5 54q0 21 20 53zM710 1276l184 221q34 40 71 40q47 0 87.5 -41t40.5 -85q0 -34 -44 -69l-220 -182q-27 -23 -55 -23q-35 0 -62 25.5t-27 60.5q0 22 25 53z
" />
    <glyph glyph-name="OE" unicode="&#x152;" horiz-adv-x="1886" 
d="M965 226v920q-83 33 -191 33q-178 0 -287.5 -127.5t-109.5 -360.5q0 -234 111 -363t290 -129q101 0 187 27zM1244 597v-380h470q44 0 69 -28t25 -81q0 -52 -25 -80t-69 -28h-718q-122 -20 -242 -20q-304 0 -483.5 184.5t-179.5 505.5q0 340 187 534.5t501 194.5
q115 0 230 -21h700q44 0 69.5 -28t25.5 -80q0 -53 -25.5 -81t-69.5 -28h-465v-351h397q43 0 68 -27.5t25 -78.5q0 -52 -25 -79.5t-68 -27.5h-397z" />
    <glyph glyph-name="oe" unicode="&#x153;" horiz-adv-x="1871" 
d="M361 511q0 -153 70 -237.5t178 -84.5q107 0 175 82.5t68 235.5q0 152 -70 236.5t-177 84.5q-108 0 -176 -82t-68 -235zM1650 452h-526v-2q11 -123 86.5 -190.5t201.5 -67.5q80 0 155 22.5t90 22.5q37 0 59 -24.5t22 -59.5q0 -46 -34 -80q-36 -36 -125 -64.5t-215 -28.5
q-252 0 -388 165q-131 -165 -382 -165q-230 0 -370 140t-140 371q0 256 143.5 401t391.5 145q253 0 371 -172q59 79 153 125.5t218 46.5q193 0 307.5 -117t114.5 -321q0 -147 -133 -147zM1127 626h403q-13 111 -61 164.5t-134 53.5q-77 0 -132 -53.5t-76 -164.5z" />
    <glyph glyph-name="Racute" unicode="&#x154;" horiz-adv-x="1221" 
d="M439 552v-436q0 -123 -137 -123t-137 123v1135q0 60 33 93.5t94 33.5h294q272 0 407 -106t135 -286q0 -139 -74 -237t-202 -141l258 -397q32 -49 32 -85q0 -56 -48.5 -96t-108.5 -40q-53 0 -88 35q-19 19 -42 58l-278 469h-138zM439 764h141q131 0 198 55.5t67 149.5
q0 197 -273 197h-133v-402zM508 1642l237 196q30 26 60 26q48 0 86 -47t38 -97q0 -45 -55 -76l-265 -149q-28 -15 -50 -15q-37 0 -63.5 30.5t-26.5 67.5q0 32 39 64z" />
    <glyph glyph-name="racute" unicode="&#x155;" horiz-adv-x="763" 
d="M147 113v801q0 55 29 84t84 29q102 0 119 -98l13 -73h3q39 82 102 131.5t139 49.5q119 0 119 -127q0 -73 -28.5 -116t-69.5 -43q-14 0 -37 7.5t-39 7.5q-45 0 -88 -41.5t-74 -101.5v-510q0 -120 -136 -120t-136 120zM363 1288l174 216q35 45 76 45q47 0 89 -40t42 -89
q0 -8 -1.5 -15t-5 -13.5t-6 -11t-9 -11l-9 -9t-10.5 -9t-10 -8.5l-208 -179q-29 -25 -59 -25q-38 0 -65.5 27.5t-27.5 62.5q0 11 5.5 23t8.5 16t16 20z" />
    <glyph glyph-name="Rcommaaccent" unicode="&#x156;" horiz-adv-x="1221" 
d="M439 552v-436q0 -123 -137 -123t-137 123v1135q0 60 33 93.5t94 33.5h294q272 0 407 -106t135 -286q0 -139 -74 -237t-202 -141l258 -397q32 -49 32 -85q0 -56 -48.5 -96t-108.5 -40q-53 0 -88 35q-19 19 -42 58l-278 469h-138zM439 764h141q131 0 198 55.5t67 149.5
q0 197 -273 197h-133v-402zM504 -235q0 56 40 94t100 38t95 -36.5t35 -97.5q0 -59 -36 -110.5t-91 -83t-115.5 -49.5t-113.5 -18t-80 19t-27 52q0 26 17 43q18 18 86 38.5t107 57.5q-17 22 -17 53z" />
    <glyph glyph-name="rcommaaccent" unicode="&#x157;" horiz-adv-x="763" 
d="M147 113v801q0 55 29 84t84 29q102 0 119 -98l13 -73h3q39 82 102 131.5t139 49.5q119 0 119 -127q0 -73 -28.5 -116t-69.5 -43q-14 0 -37 7.5t-39 7.5q-45 0 -88 -41.5t-74 -101.5v-510q0 -120 -136 -120t-136 120zM221 -235q0 56 40 94t100 38t95 -36.5t35 -97.5
q0 -59 -36 -110.5t-91 -83t-115.5 -49.5t-113.5 -18t-80 19t-27 52q0 26 17 43q18 18 86 38.5t107 57.5q-17 22 -17 53z" />
    <glyph glyph-name="Rcaron" unicode="&#x158;" horiz-adv-x="1221" 
d="M439 552v-436q0 -123 -137 -123t-137 123v1135q0 60 33 93.5t94 33.5h294q272 0 407 -106t135 -286q0 -139 -74 -237t-202 -141l258 -397q32 -49 32 -85q0 -56 -48.5 -96t-108.5 -40q-53 0 -88 35q-19 19 -42 58l-278 469h-138zM439 764h141q131 0 198 55.5t67 149.5
q0 197 -273 197h-133v-402zM597 1712l189 127q31 20 54 20q33 0 57.5 -25.5t24.5 -58.5q0 -32 -40 -68l-188 -171q-52 -47 -107 -47q-58 0 -108 47l-183 171q-33 30 -33 61q0 36 27 63t61 27q24 0 56 -21z" />
    <glyph glyph-name="rcaron" unicode="&#x159;" horiz-adv-x="763" 
d="M147 113v801q0 55 29 84t84 29q102 0 119 -98l13 -73h3q39 82 102 131.5t139 49.5q119 0 119 -127q0 -73 -28.5 -116t-69.5 -43q-14 0 -37 7.5t-39 7.5q-45 0 -88 -41.5t-74 -101.5v-510q0 -120 -136 -120t-136 120zM427 1364l174 138q31 24 55 24q33 0 58 -25t25 -58
q0 -27 -31 -58l-191 -197q-45 -47 -97 -47q-51 0 -97 46l-184 190q-33 34 -33 59q0 35 27.5 62t62.5 27q29 0 59 -24z" />
    <glyph glyph-name="Sacute" unicode="&#x15a;" horiz-adv-x="1120" 
d="M110 991q0 181 131 293.5t372 112.5q115 0 198 -26t119 -62q37 -37 37 -90q0 -45 -26.5 -70.5t-69.5 -25.5q-25 0 -60 14.5t-88 29t-123 14.5q-106 0 -159.5 -42.5t-53.5 -114.5q0 -43 21.5 -75.5t58.5 -54.5t84.5 -40t100 -36.5t105 -39.5t100 -52.5t84.5 -72.5
t58.5 -103t21.5 -140q0 -193 -137 -310.5t-391 -117.5q-128 0 -217.5 27t-125.5 63q-39 39 -39 92q0 46 26.5 72t69.5 26q21 0 48 -10t53.5 -21.5t79.5 -21.5t118 -10q117 0 177 49t60 130q0 58 -35 99.5t-90.5 67t-123.5 48t-135.5 52.5t-123 70.5t-90.5 110.5t-35 165z
M453 1642l237 196q30 26 60 26q48 0 86 -47t38 -97q0 -45 -55 -76l-265 -149q-28 -15 -50 -15q-37 0 -63.5 30.5t-26.5 67.5q0 32 39 64z" />
    <glyph glyph-name="sacute" unicode="&#x15b;" horiz-adv-x="952" 
d="M97 718q0 141 110 229.5t316 88.5q102 0 169 -20.5t96 -49.5q32 -32 32 -83q0 -38 -24 -62t-61 -24q-18 0 -89 21t-136 21q-76 0 -112 -24.5t-36 -64.5q0 -34 28 -58t72.5 -40t98.5 -31t108.5 -38t99 -54.5t72.5 -86t28 -127.5q0 -147 -116 -240.5t-332 -93.5t-291 75
q-32 32 -32 83q0 39 23.5 63.5t61.5 24.5q19 0 53.5 -12t85.5 -24t112 -12q87 0 128 28t41 75q0 31 -21.5 55t-57.5 38t-81.5 29.5t-92.5 29.5t-92.5 38t-81.5 54t-57.5 79.5t-21.5 112.5zM368 1288l174 216q35 45 76 45q47 0 89 -40t42 -89q0 -8 -1.5 -15t-5 -13.5t-6 -11
t-9 -11l-9 -9t-10.5 -9t-10 -8.5l-208 -179q-29 -25 -59 -25q-38 0 -65.5 27.5t-27.5 62.5q0 11 5.5 23t8.5 16t16 20z" />
    <glyph glyph-name="Scircumflex" unicode="&#x15c;" horiz-adv-x="1120" 
d="M110 991q0 181 131 293.5t372 112.5q115 0 198 -26t119 -62q37 -37 37 -90q0 -45 -26.5 -70.5t-69.5 -25.5q-25 0 -60 14.5t-88 29t-123 14.5q-106 0 -159.5 -42.5t-53.5 -114.5q0 -43 21.5 -75.5t58.5 -54.5t84.5 -40t100 -36.5t105 -39.5t100 -52.5t84.5 -72.5
t58.5 -103t21.5 -140q0 -193 -137 -310.5t-391 -117.5q-128 0 -217.5 27t-125.5 63q-39 39 -39 92q0 46 26.5 72t69.5 26q21 0 48 -10t53.5 -21.5t79.5 -21.5t118 -10q117 0 177 49t60 130q0 58 -35 99.5t-90.5 67t-123.5 48t-135.5 52.5t-123 70.5t-90.5 110.5t-35 165z
M567 1631l-190 -127q-30 -20 -53 -20q-33 0 -57.5 25.5t-24.5 58.5q0 32 39 68l188 171q52 47 108 47q58 0 107 -46l184 -172q33 -30 33 -60q0 -37 -27 -63.5t-61 -26.5q-27 0 -56 20z" />
    <glyph glyph-name="scircumflex" unicode="&#x15d;" horiz-adv-x="952" 
d="M97 718q0 141 110 229.5t316 88.5q102 0 169 -20.5t96 -49.5q32 -32 32 -83q0 -38 -24 -62t-61 -24q-18 0 -89 21t-136 21q-76 0 -112 -24.5t-36 -64.5q0 -34 28 -58t72.5 -40t98.5 -31t108.5 -38t99 -54.5t72.5 -86t28 -127.5q0 -147 -116 -240.5t-332 -93.5t-291 75
q-32 32 -32 83q0 39 23.5 63.5t61.5 24.5q19 0 53.5 -12t85.5 -24t112 -12q87 0 128 28t41 75q0 31 -21.5 55t-57.5 38t-81.5 29.5t-92.5 29.5t-92.5 38t-81.5 54t-57.5 79.5t-21.5 112.5zM474 1304l-174 -138q-31 -24 -55 -24q-33 0 -58 25t-25 58q0 25 31 58l191 197
q47 47 97 47q55 0 98 -46l183 -190q33 -34 33 -59q0 -35 -27.5 -62t-62.5 -27q-29 0 -59 24z" />
    <glyph glyph-name="Scedilla" unicode="&#x15e;" horiz-adv-x="1120" 
d="M412 -161l35 144q-109 5 -186.5 30.5t-110.5 58.5q-39 39 -39 92q0 46 26.5 72t69.5 26q21 0 48 -10t53.5 -21.5t79.5 -21.5t118 -10q117 0 177 49t60 130q0 58 -35 99.5t-90.5 67t-123.5 48t-135.5 52.5t-123 70.5t-90.5 110.5t-35 165q0 181 131 293.5t372 112.5
q115 0 198 -26t119 -62q37 -37 37 -90q0 -45 -26.5 -70.5t-69.5 -25.5q-25 0 -60 14.5t-88 29t-123 14.5q-106 0 -159.5 -42.5t-53.5 -114.5q0 -43 21.5 -75.5t58.5 -54.5t84.5 -40t100 -36.5t105 -39.5t100 -52.5t84.5 -72.5t58.5 -103t21.5 -140q0 -171 -108 -284
t-310 -137l-21 -79q81 -8 129.5 -52t48.5 -120q0 -99 -80 -164.5t-223 -65.5q-80 0 -115.5 23.5t-35.5 60.5q0 28 16 44.5t45 16.5q9 0 29.5 -1.5t33.5 -1.5q121 0 121 72q0 56 -75 56h-25q-54 0 -39 61z" />
    <glyph glyph-name="scedilla" unicode="&#x15f;" horiz-adv-x="952" 
d="M338 -161l34 144q-175 6 -242 73q-32 32 -32 83q0 39 23.5 63.5t61.5 24.5q19 0 53.5 -12t85.5 -24t112 -12q87 0 128 28t41 75q0 31 -21.5 55t-57.5 38t-81.5 29.5t-92.5 29.5t-92.5 38t-81.5 54t-57.5 79.5t-21.5 112.5q0 141 110 229.5t316 88.5q102 0 169 -20.5
t96 -49.5q32 -32 32 -83q0 -38 -24 -62t-61 -24q-18 0 -89 21t-136 21q-76 0 -112 -24.5t-36 -64.5q0 -34 28 -58t72.5 -40t98.5 -31t108.5 -38t99 -54.5t72.5 -86t28 -127.5q0 -126 -88 -215t-252 -112l-21 -78q81 -8 129.5 -52t48.5 -120q0 -99 -80 -164.5t-223 -65.5
q-80 0 -115.5 23.5t-35.5 60.5q0 28 16 44.5t45 16.5q9 0 29.5 -1.5t33.5 -1.5q121 0 121 72q0 56 -75 56h-25q-54 0 -39 61z" />
    <glyph glyph-name="Scaron" unicode="&#x160;" horiz-adv-x="1120" 
d="M110 991q0 181 131 293.5t372 112.5q115 0 198 -26t119 -62q37 -37 37 -90q0 -45 -26.5 -70.5t-69.5 -25.5q-25 0 -60 14.5t-88 29t-123 14.5q-106 0 -159.5 -42.5t-53.5 -114.5q0 -43 21.5 -75.5t58.5 -54.5t84.5 -40t100 -36.5t105 -39.5t100 -52.5t84.5 -72.5
t58.5 -103t21.5 -140q0 -193 -137 -310.5t-391 -117.5q-128 0 -217.5 27t-125.5 63q-39 39 -39 92q0 46 26.5 72t69.5 26q21 0 48 -10t53.5 -21.5t79.5 -21.5t118 -10q117 0 177 49t60 130q0 58 -35 99.5t-90.5 67t-123.5 48t-135.5 52.5t-123 70.5t-90.5 110.5t-35 165z
M563 1712l189 127q31 20 54 20q33 0 57.5 -25.5t24.5 -58.5q0 -32 -40 -68l-188 -171q-52 -47 -107 -47q-58 0 -108 47l-183 171q-33 30 -33 61q0 36 27 63t61 27q24 0 56 -21z" />
    <glyph glyph-name="scaron" unicode="&#x161;" horiz-adv-x="952" 
d="M97 718q0 141 110 229.5t316 88.5q102 0 169 -20.5t96 -49.5q32 -32 32 -83q0 -38 -24 -62t-61 -24q-18 0 -89 21t-136 21q-76 0 -112 -24.5t-36 -64.5q0 -34 28 -58t72.5 -40t98.5 -31t108.5 -38t99 -54.5t72.5 -86t28 -127.5q0 -147 -116 -240.5t-332 -93.5t-291 75
q-32 32 -32 83q0 39 23.5 63.5t61.5 24.5q19 0 53.5 -12t85.5 -24t112 -12q87 0 128 28t41 75q0 31 -21.5 55t-57.5 38t-81.5 29.5t-92.5 29.5t-92.5 38t-81.5 54t-57.5 79.5t-21.5 112.5zM476 1364l174 138q31 24 55 24q33 0 58 -25t25 -58q0 -27 -31 -58l-191 -197
q-45 -47 -97 -47q-51 0 -97 46l-184 190q-33 34 -33 59q0 35 27.5 62t62.5 27q29 0 59 -24z" />
    <glyph glyph-name="uni0162" unicode="&#x162;" horiz-adv-x="1144" 
d="M433 1154h-315q-46 0 -71.5 28.5t-25.5 83.5t25.5 83.5t71.5 28.5h908q46 0 71.5 -28.5t25.5 -83.5t-25.5 -83.5t-71.5 -28.5h-315v-1038q0 -94 -84 -115l-24 -91q81 -8 129.5 -52t48.5 -120q0 -99 -80 -164.5t-223 -65.5q-80 0 -115.5 23.5t-35.5 60.5q0 28 16 44.5
t45 16.5q9 0 29.5 -1.5t33.5 -1.5q121 0 121 72q0 56 -75 56h-26q-53 0 -38 61l43 180q-43 30 -43 97v1038z" />
    <glyph glyph-name="uni0163" unicode="&#x163;" horiz-adv-x="754" 
d="M190 814h-79q-41 0 -65 26.5t-24 75.5q0 48 24 74.5t65 26.5h88l32 169q20 111 123 111q52 0 80 -28.5t28 -82.5v-169h168q41 0 65.5 -26.5t24.5 -74.5q0 -49 -24 -75.5t-65 -26.5h-169v-481q0 -69 24 -100t74 -31q27 0 56 7t39 7q32 0 52.5 -22.5t20.5 -58.5
q0 -49 -35 -84q-61 -61 -201 -61l-21 -80q81 -8 129.5 -52t48.5 -120q0 -99 -80 -164.5t-223 -65.5q-80 0 -115.5 23.5t-35.5 60.5q0 28 16 44.5t45 16.5q8 0 29 -1.5t34 -1.5q121 0 121 72q0 56 -75 56h-26q-52 0 -39 61l42 172q-152 58 -152 273v530z" />
    <glyph glyph-name="Tcaron" unicode="&#x164;" horiz-adv-x="1144" 
d="M433 1154h-315q-46 0 -71.5 28.5t-25.5 83.5t25.5 83.5t71.5 28.5h908q46 0 71.5 -28.5t25.5 -83.5t-25.5 -83.5t-71.5 -28.5h-315v-1038q0 -123 -139 -123t-139 123v1038zM579 1712l189 127q31 20 54 20q33 0 57.5 -25.5t24.5 -58.5q0 -32 -40 -68l-188 -171
q-52 -47 -107 -47q-58 0 -108 47l-183 171q-33 30 -33 61q0 36 27 63t61 27q24 0 56 -21z" />
    <glyph glyph-name="tcaron" unicode="&#x165;" horiz-adv-x="788" 
d="M190 814h-79q-41 0 -65 26.5t-24 75.5q0 48 24 74.5t65 26.5h88l32 169q20 111 123 111q52 0 80 -28.5t28 -82.5v-169h169q41 0 65 -26.5t24 -74.5q0 -49 -24 -75.5t-65 -26.5h-169v-481q0 -69 24 -100t74 -31q27 0 56 7t39 7q32 0 52.5 -22.5t20.5 -58.5q0 -49 -35 -84
q-25 -25 -77.5 -43.5t-129.5 -18.5q-151 0 -223.5 72t-72.5 222v531zM562 1261l66 251q11 43 33.5 63t62.5 20q50 0 89.5 -27.5t39.5 -67.5q0 -21 -16 -54l-117 -253q-23 -51 -77 -51q-36 0 -62.5 19.5t-26.5 51.5q0 20 8 48z" />
    <glyph glyph-name="Tbar" unicode="&#x166;" horiz-adv-x="1144" 
d="M433 1154h-315q-46 0 -71.5 28.5t-25.5 83.5t25.5 83.5t71.5 28.5h908q46 0 71.5 -28.5t25.5 -83.5t-25.5 -83.5t-71.5 -28.5h-315v-370h196q41 0 64 -25t23 -72t-23.5 -73t-63.5 -26h-196v-472q0 -123 -139 -123t-139 123v472h-196q-40 0 -63.5 26t-23.5 73t23 72t64 25
h196v370z" />
    <glyph glyph-name="tbar" unicode="&#x167;" horiz-adv-x="819" 
d="M225 814h-79q-40 0 -64 26.5t-24 75.5q0 48 24 74.5t64 26.5h88l32 169q20 111 123 111q53 0 80.5 -28.5t27.5 -82.5v-169h170q40 0 64 -26.5t24 -74.5q0 -49 -24 -75.5t-64 -26.5h-170v-152h161q40 0 63 -24.5t23 -70.5q0 -45 -23.5 -70.5t-62.5 -25.5h-161v-138
q0 -69 24 -100t74 -31q27 0 56 7t39 7q32 0 52.5 -22.5t20.5 -58.5q0 -49 -35 -84q-25 -25 -77.5 -43.5t-129.5 -18.5q-151 0 -223.5 72t-72.5 222v188h-80q-39 0 -62 25.5t-23 70.5q0 46 22.5 70.5t62.5 24.5h80v152z" />
    <glyph glyph-name="Utilde" unicode="&#x168;" horiz-adv-x="1425" 
d="M153 535v727q0 59 35 91t105 32q139 0 139 -123v-691q0 -187 77.5 -277.5t210.5 -90.5q124 0 198.5 84.5t74.5 251.5v723q0 123 139 123q70 0 105 -32t35 -91v-695q0 -289 -147.5 -438t-419.5 -149q-270 0 -411 141t-141 414zM562 1605q-28 0 -50.5 -12.5t-34.5 -27
t-31 -27t-40 -12.5q-34 0 -55.5 21t-21.5 61q0 65 71.5 130t177.5 65q46 0 91 -15t74.5 -33.5t63.5 -33.5t61 -15q28 0 50.5 12.5t34.5 27.5t31 27.5t40 12.5q34 0 55.5 -21t21.5 -61q0 -65 -71.5 -130t-177.5 -65q-58 0 -113 24t-100 48t-77 24z" />
    <glyph glyph-name="utilde" unicode="&#x169;" horiz-adv-x="1221" 
d="M139 397v507q0 120 136 120t136 -120v-475q0 -231 178 -231q40 0 76.5 15t60 36.5t42 43t26.5 36.5l8 15v560q0 120 136 120t136 -120v-801q0 -55 -29 -84t-84 -29q-103 0 -119 97l-8 50h-4l-11 -16.5t-35 -37.5t-60.5 -47.5t-88.5 -37.5t-118 -17q-176 0 -277 108.5
t-101 307.5zM466 1270q-27 0 -49 -13t-34.5 -29t-32 -29t-42.5 -13q-34 0 -57 22t-23 61q0 71 73 134.5t179 63.5q47 0 89.5 -16t68.5 -34.5t56 -34.5t55 -16q34 0 58.5 21t47.5 42t52 21q34 0 57 -22t23 -60q0 -71 -73.5 -135t-178.5 -64q-47 0 -90 16t-69 34.5t-56 34.5
t-54 16z" />
    <glyph glyph-name="Umacron" unicode="&#x16a;" horiz-adv-x="1425" 
d="M153 535v727q0 59 35 91t105 32q139 0 139 -123v-691q0 -187 77.5 -277.5t210.5 -90.5q124 0 198.5 84.5t74.5 251.5v723q0 123 139 123q70 0 105 -32t35 -91v-695q0 -289 -147.5 -438t-419.5 -149q-270 0 -411 141t-141 414zM450 1746h526q87 0 87 -97q0 -96 -87 -96
h-526q-87 0 -87 96q0 97 87 97z" />
    <glyph glyph-name="umacron" unicode="&#x16b;" horiz-adv-x="1221" 
d="M139 397v507q0 120 136 120t136 -120v-475q0 -231 178 -231q40 0 76.5 15t60 36.5t42 43t26.5 36.5l8 15v560q0 120 136 120t136 -120v-801q0 -55 -29 -84t-84 -29q-103 0 -119 97l-8 50h-4l-11 -16.5t-35 -37.5t-60.5 -47.5t-88.5 -37.5t-118 -17q-176 0 -277 108.5
t-101 307.5zM348 1411h520q86 0 86 -96q0 -46 -22.5 -70.5t-63.5 -24.5h-520q-41 0 -63.5 24.5t-22.5 70.5q0 96 86 96z" />
    <glyph glyph-name="Ubreve" unicode="&#x16c;" horiz-adv-x="1425" 
d="M153 535v727q0 59 35 91t105 32q139 0 139 -123v-691q0 -187 77.5 -277.5t210.5 -90.5q124 0 198.5 84.5t74.5 251.5v723q0 123 139 123q70 0 105 -32t35 -91v-695q0 -289 -147.5 -438t-419.5 -149q-270 0 -411 141t-141 414zM397 1757q0 44 24.5 68t66.5 24q70 0 82 -65
q20 -112 148 -112t149 112q12 65 82 65q42 0 66.5 -24t24.5 -68q0 -116 -97 -193t-231 -77q-138 0 -226.5 76t-88.5 194z" />
    <glyph glyph-name="ubreve" unicode="&#x16d;" horiz-adv-x="1221" 
d="M139 397v507q0 120 136 120t136 -120v-475q0 -231 178 -231q40 0 76.5 15t60 36.5t42 43t26.5 36.5l8 15v560q0 120 136 120t136 -120v-801q0 -55 -29 -84t-84 -29q-103 0 -119 97l-8 50h-4l-11 -16.5t-35 -37.5t-60.5 -47.5t-88.5 -37.5t-118 -17q-176 0 -277 108.5
t-101 307.5zM299 1414q0 43 24.5 66t65.5 23q67 0 79 -61q21 -126 140 -126q120 0 140 126q11 61 79 61q41 0 65.5 -23t24.5 -66q0 -119 -88.5 -198.5t-228.5 -79.5q-129 0 -215 74.5t-86 203.5z" />
    <glyph glyph-name="Uring" unicode="&#x16e;" horiz-adv-x="1425" 
d="M153 535v727q0 59 35 91t105 32q139 0 139 -123v-691q0 -187 77.5 -277.5t210.5 -90.5q124 0 198.5 84.5t74.5 251.5v723q0 123 139 123q70 0 105 -32t35 -91v-695q0 -289 -147.5 -438t-419.5 -149q-270 0 -411 141t-141 414zM436 1721q0 106 80.5 177t203.5 71
t199.5 -67t76.5 -173q0 -107 -80.5 -177.5t-203.5 -70.5t-199.5 66.5t-76.5 173.5zM597 1725q0 -52 33 -84t86 -32t86 32t33 84t-33 83.5t-86 31.5t-86 -31.5t-33 -83.5z" />
    <glyph glyph-name="uring" unicode="&#x16f;" horiz-adv-x="1221" 
d="M139 397v507q0 120 136 120t136 -120v-475q0 -231 178 -231q40 0 76.5 15t60 36.5t42 43t26.5 36.5l8 15v560q0 120 136 120t136 -120v-801q0 -55 -29 -84t-84 -29q-103 0 -119 97l-8 50h-4l-11 -16.5t-35 -37.5t-60.5 -47.5t-88.5 -37.5t-118 -17q-176 0 -277 108.5
t-101 307.5zM333 1355q0 107 78.5 176.5t198.5 69.5t194.5 -65.5t74.5 -171.5q0 -105 -78.5 -175.5t-198.5 -70.5t-194.5 66t-74.5 171zM494 1359q0 -51 31 -81.5t81 -30.5t81 30.5t31 82.5q0 51 -30.5 81.5t-81.5 30.5t-81.5 -30.5t-30.5 -82.5z" />
    <glyph glyph-name="Uhungarumlaut" unicode="&#x170;" horiz-adv-x="1425" 
d="M153 535v727q0 59 35 91t105 32q139 0 139 -123v-691q0 -187 77.5 -277.5t210.5 -90.5q124 0 198.5 84.5t74.5 251.5v723q0 123 139 123q70 0 105 -32t35 -91v-695q0 -289 -147.5 -438t-419.5 -149q-270 0 -411 141t-141 414zM467 1604l173 218q37 46 76 46
q47 0 87 -36.5t40 -79.5q0 -30 -38 -64l-216 -191q-31 -28 -57 -28q-33 0 -60.5 25t-27.5 58q0 22 23 52zM871 1610l214 181q38 32 67 32q46 0 82.5 -42t36.5 -90q0 -27 -14 -44t-46 -35l-241 -136q-27 -16 -51 -16q-33 0 -58 27.5t-25 60.5t35 62z" />
    <glyph glyph-name="uhungarumlaut" unicode="&#x171;" horiz-adv-x="1221" 
d="M139 397v507q0 120 136 120t136 -120v-475q0 -231 178 -231q40 0 76.5 15t60 36.5t42 43t26.5 36.5l8 15v560q0 120 136 120t136 -120v-801q0 -55 -29 -84t-84 -29q-103 0 -119 97l-8 50h-4l-11 -16.5t-35 -37.5t-60.5 -47.5t-88.5 -37.5t-118 -17q-176 0 -277 108.5
t-101 307.5zM335 1276l144 231q19 30 36.5 42.5t44.5 12.5q49 0 89 -34.5t40 -76.5q0 -28 -35 -66l-179 -200q-36 -39 -70 -39q-35 0 -62.5 23t-27.5 54q0 21 20 53zM704 1276l184 221q34 40 71 40q47 0 87.5 -41t40.5 -85q0 -34 -44 -69l-220 -182q-27 -23 -55 -23
q-35 0 -62 25.5t-27 60.5q0 22 25 53z" />
    <glyph glyph-name="Uogonek" unicode="&#x172;" horiz-adv-x="1425" 
d="M153 535v727q0 59 35 91t105 32q139 0 139 -123v-691q0 -187 77.5 -277.5t210.5 -90.5q124 0 198.5 84.5t74.5 251.5v723q0 123 139 123q70 0 105 -32t35 -91v-695q0 -290 -155 -447q-22 -22 -94 -76.5t-114 -96.5q-100 -100 -100 -186q0 -73 72 -73q23 0 50 7.5t40 7.5
q28 0 46 -18t18 -47q0 -40 -29 -69q-27 -26 -79.5 -43.5t-118.5 -17.5q-115 0 -176.5 53t-61.5 143q0 76 50 149t126 128q-13 -1 -41 -1q-270 0 -411 141t-141 414z" />
    <glyph glyph-name="uogonek" unicode="&#x173;" horiz-adv-x="1221" 
d="M139 397v507q0 120 136 120t136 -120v-475q0 -231 178 -231q40 0 76.5 15t60 36.5t42 43t26.5 36.5l8 15v560q0 120 136 120t136 -120v-801q0 -32 -8 -52t-31 -43q-10 -10 -41 -40.5t-43.5 -43t-34.5 -38.5t-31.5 -43t-18 -40t-8.5 -45q0 -70 67 -70q23 0 50 7.5t40 7.5
q29 0 47 -18.5t18 -46.5q0 -39 -30 -69q-27 -26 -79.5 -43.5t-118.5 -17.5q-113 0 -172.5 52.5t-59.5 141.5t71 174t178 153q-16 15 -27 58l-8 50h-4l-11 -16.5t-35 -37.5t-60.5 -47.5t-88.5 -37.5t-118 -17q-176 0 -277 108.5t-101 307.5z" />
    <glyph glyph-name="Wcircumflex" unicode="&#x174;" horiz-adv-x="1960" 
d="M332 172l-258 1019q-13 53 -13 72q0 57 47 91t105 34q57 0 90 -33q12 -12 20.5 -29.5t11.5 -29.5t10 -41l188 -788q11 -48 20 -98t12 -76l3 -26h4q11 91 38 201l186 766q20 83 66.5 118.5t126.5 35.5t126.5 -36t66.5 -119l183 -763q11 -47 21 -98t14 -79l5 -28h4
q14 102 37 203l177 786q18 79 39 100q34 34 92 34q56 0 100 -32t44 -84q0 -19 -13 -71l-260 -1029q-23 -91 -60 -128q-51 -51 -159 -51q-103 0 -154 51q-33 33 -57 128l-179 735q-10 40 -19 88.5t-13 76.5l-4 28h-4q-13 -102 -35 -194l-179 -734q-24 -95 -57 -128
q-51 -51 -155 -51q-107 0 -158 51q-37 37 -60 128zM980 1631l-190 -127q-30 -20 -53 -20q-33 0 -57.5 25.5t-24.5 58.5q0 32 39 68l188 171q52 47 108 47q58 0 107 -46l184 -172q33 -30 33 -60q0 -37 -27 -63.5t-61 -26.5q-27 0 -56 20z" />
    <glyph glyph-name="wcircumflex" unicode="&#x175;" horiz-adv-x="1683" 
d="M273 171l-194 659q-15 51 -15 79q0 54 47.5 86t101.5 32q57 0 88 -31q9 -9 17 -26t11.5 -30t12.5 -45l134 -502q10 -39 18 -77t10 -56l3 -19h4q9 66 32 152l126 476q23 86 63.5 122t118.5 36t118 -36t63 -122l127 -476q10 -38 18.5 -76t12.5 -57l3 -19h4q11 67 32 152
l125 503q1 3 3.5 13.5t3.5 13.5t3 11.5t3 11.5t3.5 10t4 10t3.5 8t4.5 8.5l5 7t5.5 6.5q31 31 87 31q54 0 96.5 -30t42.5 -80q0 -26 -15 -77l-195 -667q-27 -95 -64 -132q-48 -48 -146 -48t-144 46q-34 34 -62 139l-115 415q-11 40 -19.5 81.5t-11.5 63.5l-3 21h-4
q-8 -75 -33 -166l-116 -415q-29 -105 -62 -138q-47 -47 -145 -47q-100 0 -148 48q-36 36 -63 130zM843 1304l-174 -138q-31 -24 -55 -24q-33 0 -58 25t-25 58q0 25 31 58l191 197q47 47 97 47q55 0 98 -46l183 -190q33 -34 33 -59q0 -35 -27.5 -62t-62.5 -27q-29 0 -59 24z
" />
    <glyph glyph-name="Ycircumflex" unicode="&#x176;" horiz-adv-x="1149" 
d="M432 535l-361 604q-17 28 -23.5 41t-13 31.5t-6.5 35.5q0 61 50 101t106 40q49 0 81 -32q18 -18 52 -79l216 -384l53 -107h4q22 57 51 111l204 379q34 64 50 80q32 32 79 32q56 0 101.5 -38t45.5 -92q0 -16 -6 -34t-12 -29t-23 -40l-369 -620v-419q0 -123 -140 -123
q-139 0 -139 123v419zM581 1631l-190 -127q-30 -20 -53 -20q-33 0 -57.5 25.5t-24.5 58.5q0 32 39 68l188 171q52 47 108 47q58 0 107 -46l184 -172q33 -30 33 -60q0 -37 -27 -63.5t-61 -26.5q-27 0 -56 20z" />
    <glyph glyph-name="ycircumflex" unicode="&#x177;" horiz-adv-x="1061" 
d="M381 -52l-318 872q-20 55 -20 82q0 56 47.5 90.5t103.5 34.5q52 0 82 -33q17 -18 41 -89l176 -527q12 -35 22.5 -74t14.5 -60l5 -22h4q17 78 42 156l173 533q22 67 39 85q28 31 83 31q54 0 98.5 -31.5t44.5 -83.5q0 -26 -18 -75l-259 -700q-122 -330 -265.5 -475
t-350.5 -145q-105 0 -152 47q-33 33 -33 83q0 41 25 66t68 25q19 0 47.5 -3.5t46.5 -3.5q80 0 141.5 54t111.5 163zM529 1304l-174 -138q-31 -24 -55 -24q-33 0 -58 25t-25 58q0 25 31 58l191 197q47 47 97 47q55 0 98 -46l183 -190q33 -34 33 -59q0 -35 -27.5 -62
t-62.5 -27q-29 0 -59 24z" />
    <glyph glyph-name="Ydieresis" unicode="&#x178;" horiz-adv-x="1149" 
d="M432 535l-361 604q-17 28 -23.5 41t-13 31.5t-6.5 35.5q0 61 50 101t106 40q49 0 81 -32q18 -18 52 -79l216 -384l53 -107h4q22 57 51 111l204 379q34 64 50 80q32 32 79 32q56 0 101.5 -38t45.5 -92q0 -16 -6 -34t-12 -29t-23 -40l-369 -620v-419q0 -123 -140 -123
q-139 0 -139 123v419zM204 1656q0 65 43.5 108t109.5 43q67 0 108.5 -41t41.5 -106q0 -64 -43.5 -108t-109.5 -44t-108 42t-42 106zM661 1656q0 65 44 108t110 43t107.5 -41t41.5 -106q0 -64 -43.5 -108t-108.5 -44q-66 0 -108.5 42t-42.5 106z" />
    <glyph glyph-name="Zacute" unicode="&#x179;" horiz-adv-x="1081" 
d="M410 224h511q47 0 72.5 -28.5t25.5 -83.5t-25.5 -83.5t-72.5 -28.5h-689q-77 0 -118.5 39.5t-41.5 110.5q0 55 57 148l532 856h-468q-46 0 -71.5 28.5t-25.5 83.5t25.5 83.5t71.5 28.5h647q76 0 117.5 -39.5t41.5 -110.5q0 -57 -56 -148zM473 1642l237 196q30 26 60 26
q48 0 86 -47t38 -97q0 -45 -55 -76l-265 -149q-28 -15 -50 -15q-37 0 -63.5 30.5t-26.5 67.5q0 32 39 64z" />
    <glyph glyph-name="zacute" unicode="&#x17a;" horiz-adv-x="971" 
d="M140 270l406 544h-352q-41 0 -65 26.5t-24 75.5q0 48 24 74.5t65 26.5h533q77 0 116 -34.5t39 -98.5q0 -56 -61 -137l-406 -544h400q41 0 65 -26.5t24 -75.5q0 -48 -24 -74.5t-65 -26.5h-580q-77 0 -116 34.5t-39 98.5q0 57 60 137zM422 1288l174 216q35 45 76 45
q47 0 89 -40t42 -89q0 -8 -1.5 -15t-5 -13.5t-6 -11t-9 -11l-9 -9t-10.5 -9t-10 -8.5l-208 -179q-29 -25 -59 -25q-38 0 -65.5 27.5t-27.5 62.5q0 11 5.5 23t8.5 16t16 20z" />
    <glyph glyph-name="Zdotaccent" unicode="&#x17b;" horiz-adv-x="1081" 
d="M410 224h511q47 0 72.5 -28.5t25.5 -83.5t-25.5 -83.5t-72.5 -28.5h-689q-77 0 -118.5 39.5t-41.5 110.5q0 55 57 148l532 856h-468q-46 0 -71.5 28.5t-25.5 83.5t25.5 83.5t71.5 28.5h647q76 0 117.5 -39.5t41.5 -110.5q0 -57 -56 -148zM428 1661q0 64 43.5 107
t109.5 43t107.5 -41t41.5 -105t-43.5 -108t-108.5 -44q-66 0 -108 41.5t-42 106.5z" />
    <glyph glyph-name="zdotaccent" unicode="&#x17c;" horiz-adv-x="971" 
d="M140 270l406 544h-352q-41 0 -65 26.5t-24 75.5q0 48 24 74.5t65 26.5h533q77 0 116 -34.5t39 -98.5q0 -56 -61 -137l-406 -544h400q41 0 65 -26.5t24 -75.5q0 -48 -24 -74.5t-65 -26.5h-580q-77 0 -116 34.5t-39 98.5q0 57 60 137zM374 1321q0 63 43.5 106t108.5 43
t106.5 -41t41.5 -104t-43 -106.5t-108 -43.5t-107 41t-42 105z" />
    <glyph glyph-name="Zcaron" unicode="&#x17d;" horiz-adv-x="1081" 
d="M410 224h511q47 0 72.5 -28.5t25.5 -83.5t-25.5 -83.5t-72.5 -28.5h-689q-77 0 -118.5 39.5t-41.5 110.5q0 55 57 148l532 856h-468q-46 0 -71.5 28.5t-25.5 83.5t25.5 83.5t71.5 28.5h647q76 0 117.5 -39.5t41.5 -110.5q0 -57 -56 -148zM572 1712l189 127q31 20 54 20
q33 0 57.5 -25.5t24.5 -58.5q0 -32 -40 -68l-188 -171q-52 -47 -107 -47q-58 0 -108 47l-183 171q-33 30 -33 61q0 36 27 63t61 27q24 0 56 -21z" />
    <glyph glyph-name="zcaron" unicode="&#x17e;" horiz-adv-x="971" 
d="M140 270l406 544h-352q-41 0 -65 26.5t-24 75.5q0 48 24 74.5t65 26.5h533q77 0 116 -34.5t39 -98.5q0 -56 -61 -137l-406 -544h400q41 0 65 -26.5t24 -75.5q0 -48 -24 -74.5t-65 -26.5h-580q-77 0 -116 34.5t-39 98.5q0 57 60 137zM525 1364l174 138q31 24 55 24
q33 0 58 -25t25 -58q0 -27 -31 -58l-191 -197q-45 -47 -97 -47q-51 0 -97 46l-184 190q-33 34 -33 59q0 35 27.5 62t62.5 27q29 0 59 -24z" />
    <glyph glyph-name="florin" unicode="&#x192;" horiz-adv-x="1092" 
d="M389 656h-130q-40 0 -64 26.5t-24 73.5q0 48 24 74.5t64 26.5h148l11 122q36 420 415 420q131 0 185 -54q32 -32 32 -79q0 -40 -24 -65.5t-62 -25.5q-20 0 -54 9t-65 9q-68 0 -107.5 -48t-49.5 -162l-11 -126h160q40 0 63.5 -26.5t23.5 -74.5q0 -47 -23.5 -73.5
t-63.5 -26.5h-178l-47 -564q-38 -420 -415 -420q-133 0 -185 54q-32 30 -32 79q0 39 24.5 64.5t61.5 25.5q20 0 54 -9t65 -9q68 0 107.5 48.5t49.5 162.5z" />
    <glyph glyph-name="Acaron" unicode="&#x1cd;" horiz-adv-x="1293" 
d="M386 324l-67 -206q-25 -76 -46 -97q-31 -31 -87 -31q-55 0 -100 33t-45 85q0 22 20 81l351 1009q32 91 74 133q53 53 160 53t160 -53q42 -42 74 -133l352 -1004q19 -53 19 -80q0 -57 -47 -90.5t-105 -33.5q-57 0 -91 34q-21 21 -45 93l-71 207h-506zM448 537h378
l-131 394l-61 200h-4q-23 -92 -57 -200zM641 1712l189 127q31 20 54 20q33 0 57.5 -25.5t24.5 -58.5q0 -32 -40 -68l-188 -171q-52 -47 -107 -47q-58 0 -108 47l-183 171q-33 30 -33 61q0 36 27 63t61 27q24 0 56 -21z" />
    <glyph glyph-name="acaron" unicode="&#x1ce;" horiz-adv-x="1126" 
d="M715 288v104q-64 19 -156 19q-197 0 -197 -110q0 -53 40 -87t111 -34q36 0 70 11t57 27t40.5 32t25.5 27zM715 566v83q0 97 -47.5 138.5t-162.5 41.5q-71 0 -129 -14.5t-95 -29.5t-57 -15q-37 0 -60 24t-23 66q0 43 31 74q38 38 146 70t248 32q208 0 313.5 -90
t105.5 -264v-327q0 -79 8.5 -133t17 -83.5t8.5 -49.5q0 -44 -31.5 -71.5t-88.5 -27.5q-114 0 -150 128h-3q-4 -6 -12 -15t-36 -32.5t-60 -41.5t-85.5 -33t-112.5 -15q-162 0 -257.5 87t-95.5 224q0 142 119.5 217t325.5 75q49 0 94.5 -4.5t67.5 -9.5zM564 1364l174 138
q31 24 55 24q33 0 58 -25t25 -58q0 -27 -31 -58l-191 -197q-45 -47 -97 -47q-51 0 -97 46l-184 190q-33 34 -33 59q0 35 27.5 62t62.5 27q29 0 59 -24z" />
    <glyph glyph-name="Icaron" unicode="&#x1cf;" horiz-adv-x="608" 
d="M165 116v1146q0 123 139 123q140 0 140 -123v-1146q0 -123 -140 -123q-139 0 -139 123zM313 1712l189 127q31 20 54 20q33 0 57.5 -25.5t24.5 -58.5q0 -32 -40 -68l-188 -171q-52 -47 -107 -47q-58 0 -108 47l-183 171q-33 30 -33 61q0 36 27 63t61 27q24 0 56 -21z" />
    <glyph glyph-name="icaron" unicode="&#x1d0;" horiz-adv-x="565" 
d="M147 113v791q0 120 136 120t136 -120v-791q0 -120 -136 -120t-136 120zM289 1365l149 132q32 29 62 29q33 0 57 -23.5t24 -56.5q0 -24 -31 -62l-160 -186q-49 -57 -108 -57q-60 0 -109 57l-158 184q-29 34 -29 57q0 35 27.5 61t63.5 26q30 0 64 -30z" />
    <glyph glyph-name="Ocaron" unicode="&#x1d1;" horiz-adv-x="1512" 
d="M91 670q0 339 185.5 534t492.5 195q297 0 474.5 -185t177.5 -506q0 -338 -185 -533t-492 -195q-297 0 -475 185t-178 505zM377 691q0 -232 108 -361t273 -129t271 127.5t106 358.5q0 232 -107.5 361t-273.5 129q-165 0 -271 -127.5t-106 -358.5zM758 1712l189 127
q31 20 54 20q33 0 57.5 -25.5t24.5 -58.5q0 -32 -40 -68l-188 -171q-52 -47 -107 -47q-58 0 -108 47l-183 171q-33 30 -33 61q0 36 27 63t61 27q24 0 56 -21z" />
    <glyph glyph-name="ocaron" unicode="&#x1d2;" horiz-adv-x="1213" 
d="M84 491q0 256 143.5 401t391.5 145q230 0 369.5 -140t139.5 -371q0 -256 -143 -401t-391 -145q-230 0 -370 140t-140 371zM361 511q0 -153 70 -237.5t178 -84.5q107 0 175 82.5t68 235.5q0 152 -70 236.5t-177 84.5q-108 0 -176 -82t-68 -235zM613 1364l174 138
q31 24 55 24q33 0 58 -25t25 -58q0 -27 -31 -58l-191 -197q-45 -47 -97 -47q-51 0 -97 46l-184 190q-33 34 -33 59q0 35 27.5 62t62.5 27q29 0 59 -24z" />
    <glyph glyph-name="Ucaron" unicode="&#x1d3;" horiz-adv-x="1425" 
d="M153 535v727q0 59 35 91t105 32q139 0 139 -123v-691q0 -187 77.5 -277.5t210.5 -90.5q124 0 198.5 84.5t74.5 251.5v723q0 123 139 123q70 0 105 -32t35 -91v-695q0 -289 -147.5 -438t-419.5 -149q-270 0 -411 141t-141 414zM725 1712l189 127q31 20 54 20
q33 0 57.5 -25.5t24.5 -58.5q0 -32 -40 -68l-188 -171q-52 -47 -107 -47q-58 0 -108 47l-183 171q-33 30 -33 61q0 36 27 63t61 27q24 0 56 -21z" />
    <glyph glyph-name="ucaron" unicode="&#x1d4;" horiz-adv-x="1221" 
d="M139 397v507q0 120 136 120t136 -120v-475q0 -231 178 -231q40 0 76.5 15t60 36.5t42 43t26.5 36.5l8 15v560q0 120 136 120t136 -120v-801q0 -55 -29 -84t-84 -29q-103 0 -119 97l-8 50h-4l-11 -16.5t-35 -37.5t-60.5 -47.5t-88.5 -37.5t-118 -17q-176 0 -277 108.5
t-101 307.5zM608 1364l174 138q31 24 55 24q33 0 58 -25t25 -58q0 -27 -31 -58l-191 -197q-45 -47 -97 -47q-51 0 -97 46l-184 190q-33 34 -33 59q0 35 27.5 62t62.5 27q29 0 59 -24z" />
    <glyph glyph-name="AEmacron" unicode="&#x1e2;" horiz-adv-x="1775" 
d="M401 324l-120 -212q-37 -66 -58 -87q-35 -35 -87 -35q-53 0 -94.5 34t-41.5 90q0 25 9 47t33 65l595 1039q37 64 78 88.5t115 24.5h768q44 0 69.5 -28t25.5 -80q0 -53 -25.5 -81t-69.5 -28h-465v-351h397q43 0 68 -27.5t25 -78.5q0 -52 -25 -79.5t-68 -27.5h-397v-380
h470q44 0 69 -28t25 -81q0 -52 -25 -80t-69 -28h-622q-60 0 -93.5 33.5t-33.5 93.5v197h-453zM509 537h345v624h-3zM682 1746h526q87 0 87 -97q0 -96 -87 -96h-526q-87 0 -87 96q0 97 87 97z" />
    <glyph glyph-name="aemacron" unicode="&#x1e3;" horiz-adv-x="1719" 
d="M732 285q-18 44 -26 108q-62 18 -147 18q-197 0 -197 -110q0 -53 40.5 -87t113.5 -34q37 0 73 11t60.5 26t44 30.5t28.5 26.5zM712 566v83q0 96 -46.5 138t-160.5 42q-71 0 -129 -14.5t-95 -29.5t-57 -15q-37 0 -60 24t-23 66q0 43 31 74q38 38 146 70t248 32
q230 0 316 -130q53 60 137 95.5t190 35.5q193 0 307.5 -117t114.5 -321q0 -147 -133 -147h-526v-2q11 -123 86.5 -190.5t201.5 -67.5q80 0 155 22.5t90 22.5q37 0 59 -24.5t22 -59.5q0 -46 -34 -80q-36 -36 -125 -64.5t-215 -28.5q-257 0 -395 158q-21 -21 -46 -41
t-72.5 -50t-113.5 -48t-138 -18q-167 0 -263.5 87t-96.5 224q0 142 119.5 217t325.5 75q48 0 93 -4.5t66 -9.5zM975 626h403q-13 111 -61 164.5t-134 53.5q-77 0 -132 -53.5t-76 -164.5zM596 1411h520q86 0 86 -96q0 -46 -22.5 -70.5t-63.5 -24.5h-520q-41 0 -63.5 24.5
t-22.5 70.5q0 96 86 96z" />
    <glyph glyph-name="Gcaron" unicode="&#x1e6;" horiz-adv-x="1400" 
d="M1006 544h-189q-43 0 -67.5 28t-24.5 77q0 48 24.5 76t67.5 28h335q56 0 86.5 -30.5t30.5 -86.5v-408q0 -48 -13 -79t-43 -57q-49 -43 -159 -77.5t-269 -34.5q-326 0 -510 178.5t-184 495.5q0 340 199 541t552 201q134 0 233 -34.5t139 -74.5q39 -39 39 -95
q0 -44 -27.5 -71.5t-69.5 -27.5q-20 0 -50.5 12.5t-61.5 28t-92 28t-136 12.5q-201 0 -320 -127.5t-119 -361.5q0 -238 119 -365t328 -127q56 0 101.5 8t62.5 16l18 8v319zM757 1712l189 127q31 20 54 20q33 0 57.5 -25.5t24.5 -58.5q0 -32 -40 -68l-188 -171
q-52 -47 -107 -47q-58 0 -108 47l-183 171q-33 30 -33 61q0 36 27 63t61 27q24 0 56 -21z" />
    <glyph glyph-name="gcaron" unicode="&#x1e7;" horiz-adv-x="1088" 
d="M985 1008l-94 -88q98 -93 98 -226q0 -168 -118 -271t-332 -103q-67 0 -121 15q-43 -35 -43 -79q0 -43 38 -64.5t137 -21.5h124q199 0 297 -75.5t98 -210.5q0 -162 -144.5 -269t-404.5 -107q-238 0 -354.5 84t-116.5 216q0 49 16.5 93t39.5 72t46 49.5t39 30.5l17 9
q-72 63 -72 157q0 52 26.5 99.5t52.5 69.5l26 22q-127 98 -127 252q0 167 118.5 270.5t332.5 103.5q86 0 163 -25l114 139q27 33 48 46t48 13q43 0 76.5 -31.5t33.5 -73.5q0 -24 -14 -43.5t-48 -52.5zM626 -24h-104q-68 0 -126 13q-3 -2 -8 -6t-18 -18t-22.5 -29.5
t-17.5 -39.5t-8 -49q0 -66 55.5 -106.5t165.5 -40.5q127 0 194 44.5t67 112.5q0 119 -178 119zM373 680q0 -79 48.5 -125.5t131.5 -46.5t130 45.5t47 122.5q0 79 -48.5 125.5t-132.5 46.5q-82 0 -129 -45.5t-47 -122.5zM558 1364l174 138q31 24 55 24q33 0 58 -25t25 -58
q0 -27 -31 -58l-191 -197q-45 -47 -97 -47q-51 0 -97 46l-184 190q-33 34 -33 59q0 35 27.5 62t62.5 27q29 0 59 -24z" />
    <glyph glyph-name="Kcaron" unicode="&#x1e8;" horiz-adv-x="1221" 
d="M444 743l463 567q19 24 36 41q37 37 86 37q58 0 103 -39t45 -92q0 -43 -34 -81l-407 -452l407 -495q44 -52 44 -97q0 -56 -48.5 -99t-107.5 -43q-53 0 -88 35q-11 11 -41 49l-458 583v-541q0 -123 -140 -123q-139 0 -139 123v1146q0 123 139 123q140 0 140 -123v-519z
M632 1712l189 127q31 20 54 20q33 0 57.5 -25.5t24.5 -58.5q0 -32 -40 -68l-188 -171q-52 -47 -107 -47q-58 0 -108 47l-183 171q-33 30 -33 61q0 36 27 63t61 27q24 0 56 -21z" />
    <glyph glyph-name="kcaron" unicode="&#x1e9;" horiz-adv-x="1076" 
d="M419 589l330 362q28 32 41 43q36 33 84 33q54 0 96 -38.5t42 -87.5q0 -44 -43 -87l-260 -253l282 -349q37 -45 37 -88q0 -56 -46.5 -95t-102.5 -39q-49 0 -85 36q-15 15 -39 47l-336 450v-410q0 -58 -34.5 -89t-101.5 -31t-101.5 31t-34.5 89v1249q0 120 136 120
t136 -120v-773zM285 1777l189 127q31 20 54 20q33 0 57.5 -25.5t24.5 -58.5q0 -32 -40 -68l-188 -171q-52 -47 -107 -47q-58 0 -108 47l-183 171q-33 30 -33 61q0 36 27 63t61 27q24 0 56 -21z" />
    <glyph glyph-name="Gacute" unicode="&#x1f4;" horiz-adv-x="1400" 
d="M1006 544h-189q-43 0 -67.5 28t-24.5 77q0 48 24.5 76t67.5 28h335q56 0 86.5 -30.5t30.5 -86.5v-408q0 -48 -13 -79t-43 -57q-49 -43 -159 -77.5t-269 -34.5q-326 0 -510 178.5t-184 495.5q0 340 199 541t552 201q134 0 233 -34.5t139 -74.5q39 -39 39 -95
q0 -44 -27.5 -71.5t-69.5 -27.5q-20 0 -50.5 12.5t-61.5 28t-92 28t-136 12.5q-201 0 -320 -127.5t-119 -361.5q0 -238 119 -365t328 -127q56 0 101.5 8t62.5 16l18 8v319zM648 1642l237 196q30 26 60 26q48 0 86 -47t38 -97q0 -45 -55 -76l-265 -149q-28 -15 -50 -15
q-37 0 -63.5 30.5t-26.5 67.5q0 32 39 64z" />
    <glyph glyph-name="gacute" unicode="&#x1f5;" horiz-adv-x="1088" 
d="M985 1008l-94 -88q98 -93 98 -226q0 -168 -118 -271t-332 -103q-67 0 -121 15q-43 -35 -43 -79q0 -43 38 -64.5t137 -21.5h124q199 0 297 -75.5t98 -210.5q0 -162 -144.5 -269t-404.5 -107q-238 0 -354.5 84t-116.5 216q0 49 16.5 93t39.5 72t46 49.5t39 30.5l17 9
q-72 63 -72 157q0 52 26.5 99.5t52.5 69.5l26 22q-127 98 -127 252q0 167 118.5 270.5t332.5 103.5q86 0 163 -25l114 139q27 33 48 46t48 13q43 0 76.5 -31.5t33.5 -73.5q0 -24 -14 -43.5t-48 -52.5zM626 -24h-104q-68 0 -126 13q-3 -2 -8 -6t-18 -18t-22.5 -29.5
t-17.5 -39.5t-8 -49q0 -66 55.5 -106.5t165.5 -40.5q127 0 194 44.5t67 112.5q0 119 -178 119zM373 680q0 -79 48.5 -125.5t131.5 -46.5t130 45.5t47 122.5q0 79 -48.5 125.5t-132.5 46.5q-82 0 -129 -45.5t-47 -122.5zM475 1288l174 216q35 45 76 45q47 0 89 -40t42 -89
q0 -8 -1.5 -15t-5 -13.5t-6 -11t-9 -11l-9 -9t-10.5 -9t-10 -8.5l-208 -179q-29 -25 -59 -25q-38 0 -65.5 27.5t-27.5 62.5q0 11 5.5 23t8.5 16t16 20z" />
    <glyph glyph-name="Aringacute" unicode="&#x1fa;" horiz-adv-x="1293" 
d="M386 324l-67 -206q-25 -76 -46 -97q-31 -31 -87 -31q-55 0 -100 33t-45 85q0 22 20 81l351 1009q32 91 74 133q53 53 160 53t160 -53q42 -42 74 -133l352 -1004q19 -53 19 -80q0 -57 -47 -90.5t-105 -33.5q-57 0 -91 34q-21 21 -45 93l-71 207h-506zM448 537h378
l-131 394l-61 200h-4q-23 -92 -57 -200zM367 1631q0 93 76.5 151.5t196.5 58.5t192.5 -55t72.5 -147q0 -93 -76.5 -151t-196.5 -58t-192.5 54.5t-72.5 146.5zM523 1635q0 -44 29.5 -71t83.5 -27t83.5 27t29.5 71q0 45 -29.5 72t-83.5 27t-83.5 -27t-29.5 -72zM476 1977
l292 66q27 5 38 5q31 0 48.5 -20.5t17.5 -55.5q0 -60 -65 -67l-295 -33q-27 -3 -33 -3q-25 0 -38.5 14.5t-13.5 39.5q0 42 49 54z" />
    <glyph glyph-name="aringacute" unicode="&#x1fb;" horiz-adv-x="1126" 
d="M715 288v104q-64 19 -156 19q-197 0 -197 -110q0 -53 40 -87t111 -34q36 0 70 11t57 27t40.5 32t25.5 27zM715 566v83q0 97 -47.5 138.5t-162.5 41.5q-71 0 -129 -14.5t-95 -29.5t-57 -15q-37 0 -60 24t-23 66q0 43 31 74q38 38 146 70t248 32q208 0 313.5 -90
t105.5 -264v-327q0 -79 8.5 -133t17 -83.5t8.5 -49.5q0 -44 -31.5 -71.5t-88.5 -27.5q-114 0 -150 128h-3q-4 -6 -12 -15t-36 -32.5t-60 -41.5t-85.5 -33t-112.5 -15q-162 0 -257.5 87t-95.5 224q0 142 119.5 217t325.5 75q49 0 94.5 -4.5t67.5 -9.5zM296 1355
q0 107 78.5 176.5t198.5 69.5t194.5 -65.5t74.5 -171.5q0 -105 -78.5 -175.5t-198.5 -70.5t-194.5 66t-74.5 171zM457 1359q0 -51 30.5 -81.5t81.5 -30.5t81.5 30.5t30.5 82.5q0 51 -30.5 81.5t-81.5 30.5t-81.5 -30.5t-30.5 -82.5zM405 1788l266 112q32 14 51 14
q37 0 63 -33t25 -76q0 -32 -16.5 -49.5t-52.5 -27.5l-282 -76q-28 -7 -46 -7q-29 0 -46.5 24t-17.5 52q0 44 56 67z" />
    <glyph glyph-name="AEacute" unicode="&#x1fc;" horiz-adv-x="1775" 
d="M401 324l-120 -212q-37 -66 -58 -87q-35 -35 -87 -35q-53 0 -94.5 34t-41.5 90q0 25 9 47t33 65l595 1039q37 64 78 88.5t115 24.5h768q44 0 69.5 -28t25.5 -80q0 -53 -25.5 -81t-69.5 -28h-465v-351h397q43 0 68 -27.5t25 -78.5q0 -52 -25 -79.5t-68 -27.5h-397v-380
h470q44 0 69 -28t25 -81q0 -52 -25 -80t-69 -28h-622q-60 0 -93.5 33.5t-33.5 93.5v197h-453zM509 537h345v624h-3zM823 1642l237 196q30 26 60 26q48 0 86 -47t38 -97q0 -45 -55 -76l-265 -149q-28 -15 -50 -15q-37 0 -63.5 30.5t-26.5 67.5q0 32 39 64z" />
    <glyph glyph-name="aeacute" unicode="&#x1fd;" horiz-adv-x="1719" 
d="M732 285q-18 44 -26 108q-62 18 -147 18q-197 0 -197 -110q0 -53 40.5 -87t113.5 -34q37 0 73 11t60.5 26t44 30.5t28.5 26.5zM712 566v83q0 96 -46.5 138t-160.5 42q-71 0 -129 -14.5t-95 -29.5t-57 -15q-37 0 -60 24t-23 66q0 43 31 74q38 38 146 70t248 32
q230 0 316 -130q53 60 137 95.5t190 35.5q193 0 307.5 -117t114.5 -321q0 -147 -133 -147h-526v-2q11 -123 86.5 -190.5t201.5 -67.5q80 0 155 22.5t90 22.5q37 0 59 -24.5t22 -59.5q0 -46 -34 -80q-36 -36 -125 -64.5t-215 -28.5q-257 0 -395 158q-21 -21 -46 -41
t-72.5 -50t-113.5 -48t-138 -18q-167 0 -263.5 87t-96.5 224q0 142 119.5 217t325.5 75q48 0 93 -4.5t66 -9.5zM975 626h403q-13 111 -61 164.5t-134 53.5q-77 0 -132 -53.5t-76 -164.5zM794 1288l174 216q35 45 76 45q47 0 89 -40t42 -89q0 -8 -1.5 -15t-5 -13.5t-6 -11
t-9 -11l-9 -9t-10.5 -9t-10 -8.5l-208 -179q-29 -25 -59 -25q-38 0 -65.5 27.5t-27.5 62.5q0 11 5.5 23t8.5 16t16 20z" />
    <glyph glyph-name="Oslashacute" unicode="&#x1fe;" horiz-adv-x="1544" 
d="M521 18l-78 -140q-27 -49 -44 -66q-22 -22 -59 -22q-44 0 -80.5 29.5t-36.5 71.5q0 24 33 84l75 136q-240 188 -240 559q0 340 187.5 534.5t505.5 194.5q131 0 240 -38l78 139q31 54 43 66q22 22 60 22q43 0 80 -29.5t37 -71.5q0 -4 -0.5 -8.5t-1.5 -8.5t-3 -9t-3.5 -8.5
t-5 -10.5l-5.5 -11t-7 -13.5t-8 -14.5l-74 -136q116 -87 177 -232t61 -327q0 -339 -187.5 -533.5t-504.5 -194.5q-132 0 -239 38zM466 346l450 811q-64 30 -146 30q-182 0 -294.5 -130t-112.5 -366q0 -217 103 -345zM1079 1034l-450 -813q62 -29 145 -29q182 0 294.5 129.5
t112.5 365.5q0 218 -102 347zM671 1642l237 196q30 26 60 26q48 0 86 -47t38 -97q0 -45 -55 -76l-265 -149q-28 -15 -50 -15q-37 0 -63.5 30.5t-26.5 67.5q0 32 39 64z" />
    <glyph glyph-name="oslashacute" unicode="&#x1ff;" horiz-adv-x="1223" 
d="M530 1288l174 216q35 45 76 45q47 0 89 -40t42 -89q0 -8 -1.5 -15t-5 -13.5t-6 -11t-9 -11l-9 -9t-10.5 -9t-10 -8.5l-208 -179q-29 -25 -59 -25q-38 0 -65.5 27.5t-27.5 62.5q0 11 5.5 23t8.5 16t16 20zM170 -31l77 129q-162 142 -162 393q0 256 143.5 401t395.5 145
q96 0 171 -27l82 137q34 55 84 55q42 0 76.5 -29t34.5 -69q0 -22 -18 -54l-79 -132q163 -141 163 -392q0 -256 -143.5 -401t-395.5 -145q-88 0 -171 27l-80 -134q-34 -56 -85 -56q-42 0 -76.5 29.5t-34.5 68.5q0 23 18 54zM837 703l-306 -511q37 -19 83 -19q125 0 198 84
t73 250q0 115 -48 196zM387 314l305 511q-35 19 -82 19q-125 0 -198.5 -84t-73.5 -249q0 -117 49 -197z" />
    <glyph glyph-name="Scommaaccent" unicode="&#x218;" horiz-adv-x="1120" 
d="M110 991q0 181 131 293.5t372 112.5q115 0 198 -26t119 -62q37 -37 37 -90q0 -45 -26.5 -70.5t-69.5 -25.5q-25 0 -60 14.5t-88 29t-123 14.5q-106 0 -159.5 -42.5t-53.5 -114.5q0 -43 21.5 -75.5t58.5 -54.5t84.5 -40t100 -36.5t105 -39.5t100 -52.5t84.5 -72.5
t58.5 -103t21.5 -140q0 -193 -137 -310.5t-391 -117.5q-128 0 -217.5 27t-125.5 63q-39 39 -39 92q0 46 26.5 72t69.5 26q21 0 48 -10t53.5 -21.5t79.5 -21.5t118 -10q117 0 177 49t60 130q0 58 -35 99.5t-90.5 67t-123.5 48t-135.5 52.5t-123 70.5t-90.5 110.5t-35 165z
M411 -235q0 56 40 94t100 38t95 -36.5t35 -97.5q0 -59 -36 -110.5t-91 -83t-115.5 -49.5t-113.5 -18t-80 19t-27 52q0 26 17 43q18 18 86 38.5t107 57.5q-17 22 -17 53z" />
    <glyph glyph-name="scommaaccent" unicode="&#x219;" horiz-adv-x="952" 
d="M97 718q0 141 110 229.5t316 88.5q102 0 169 -20.5t96 -49.5q32 -32 32 -83q0 -38 -24 -62t-61 -24q-18 0 -89 21t-136 21q-76 0 -112 -24.5t-36 -64.5q0 -34 28 -58t72.5 -40t98.5 -31t108.5 -38t99 -54.5t72.5 -86t28 -127.5q0 -147 -116 -240.5t-332 -93.5t-291 75
q-32 32 -32 83q0 39 23.5 63.5t61.5 24.5q19 0 53.5 -12t85.5 -24t112 -12q87 0 128 28t41 75q0 31 -21.5 55t-57.5 38t-81.5 29.5t-92.5 29.5t-92.5 38t-81.5 54t-57.5 79.5t-21.5 112.5zM337 -235q0 56 40 94t100 38t95 -36.5t35 -97.5q0 -59 -36 -110.5t-91 -83
t-115.5 -49.5t-113.5 -18t-80 19t-27 52q0 26 17 43q18 18 86 38.5t107 57.5q-17 22 -17 53z" />
    <glyph glyph-name="Tcommaaccent" unicode="&#x21a;" horiz-adv-x="1144" 
d="M433 1154h-315q-46 0 -71.5 28.5t-25.5 83.5t25.5 83.5t71.5 28.5h908q46 0 71.5 -28.5t25.5 -83.5t-25.5 -83.5t-71.5 -28.5h-315v-1038q0 -123 -139 -123t-139 123v1038zM434 -235q0 56 40 94t100 38t95 -36.5t35 -97.5q0 -59 -36 -110.5t-91 -83t-115.5 -49.5
t-113.5 -18t-80 19t-27 52q0 26 17 43q18 18 86 38.5t107 57.5q-17 22 -17 53z" />
    <glyph glyph-name="tcommaaccent" unicode="&#x21b;" horiz-adv-x="754" 
d="M190 814h-79q-41 0 -65 26.5t-24 75.5q0 48 24 74.5t65 26.5h88l32 169q20 111 123 111q52 0 80 -28.5t28 -82.5v-169h169q41 0 65 -26.5t24 -74.5q0 -49 -24 -75.5t-65 -26.5h-169v-481q0 -69 24 -100t74 -31q27 0 56 7t39 7q32 0 52.5 -22.5t20.5 -58.5q0 -49 -35 -84
q-25 -25 -77.5 -43.5t-129.5 -18.5q-151 0 -223.5 72t-72.5 222v531zM306 -235q0 56 40 94t100 38t95 -36.5t35 -97.5q0 -59 -36 -110.5t-91 -83t-115.5 -49.5t-113.5 -18t-80 19t-27 52q0 26 17 43q18 18 86 38.5t107 57.5q-17 22 -17 53z" />
    <glyph glyph-name="Adotaccent" unicode="&#x226;" horiz-adv-x="1293" 
d="M386 324l-67 -206q-25 -76 -46 -97q-31 -31 -87 -31q-55 0 -100 33t-45 85q0 22 20 81l351 1009q32 91 74 133q53 53 160 53t160 -53q42 -42 74 -133l352 -1004q19 -53 19 -80q0 -57 -47 -90.5t-105 -33.5q-57 0 -91 34q-21 21 -45 93l-71 207h-506zM448 537h378
l-131 394l-61 200h-4q-23 -92 -57 -200zM484 1661q0 64 43.5 107t109.5 43t107.5 -41t41.5 -105t-43.5 -108t-108.5 -44q-66 0 -108 41.5t-42 106.5z" />
    <glyph glyph-name="adotaccent" unicode="&#x227;" horiz-adv-x="1126" 
d="M715 288v104q-64 19 -156 19q-197 0 -197 -110q0 -53 40 -87t111 -34q36 0 70 11t57 27t40.5 32t25.5 27zM715 566v83q0 97 -47.5 138.5t-162.5 41.5q-71 0 -129 -14.5t-95 -29.5t-57 -15q-37 0 -60 24t-23 66q0 43 31 74q38 38 146 70t248 32q208 0 313.5 -90
t105.5 -264v-327q0 -79 8.5 -133t17 -83.5t8.5 -49.5q0 -44 -31.5 -71.5t-88.5 -27.5q-114 0 -150 128h-3q-4 -6 -12 -15t-36 -32.5t-60 -41.5t-85.5 -33t-112.5 -15q-162 0 -257.5 87t-95.5 224q0 142 119.5 217t325.5 75q49 0 94.5 -4.5t67.5 -9.5zM412 1321
q0 63 43.5 106t108.5 43t106.5 -41t41.5 -104t-43 -106.5t-108 -43.5t-107 41t-42 105z" />
    <glyph glyph-name="dotlessj" unicode="&#x237;" horiz-adv-x="568" 
d="M150 26v878q0 120 135 120q136 0 136 -120v-891q0 -258 -132 -388q-105 -105 -223 -105q-54 0 -86.5 27.5t-32.5 72.5q0 48 44 83q43 31 69 56.5t48.5 63t32 86.5t9.5 117z" />
    <glyph glyph-name="apostrophe" unicode="&#x2bc;" 
d="M401 1470q0 55 40 92t100 37q61 0 98.5 -39t37.5 -106q0 -76 -37 -149.5t-93 -129.5q-61 -61 -117 -61q-28 0 -45 14.5t-17 40.5q0 23 17 44.5t43 58.5t42 87q-29 12 -49 41t-20 70z" />
    <glyph glyph-name="circumflex" unicode="&#x2c6;" 
d="M506 1304l-174 -138q-31 -24 -55 -24q-33 0 -58 25t-25 58q0 25 31 58l191 197q47 47 97 47q55 0 98 -46l183 -190q33 -34 33 -59q0 -35 -27.5 -62t-62.5 -27q-29 0 -59 24z" />
    <glyph glyph-name="caron" unicode="&#x2c7;" 
d="M517 1364l174 138q31 24 55 24q33 0 58 -25t25 -58q0 -27 -31 -58l-191 -197q-45 -47 -97 -47q-51 0 -97 46l-184 190q-33 34 -33 59q0 35 27.5 62t62.5 27q29 0 59 -24z" />
    <glyph glyph-name="breve" unicode="&#x2d8;" 
d="M203 1414q0 43 24.5 66t65.5 23q67 0 79 -61q21 -126 140 -126q120 0 140 126q11 61 79 61q41 0 65.5 -23t24.5 -66q0 -119 -88.5 -198.5t-228.5 -79.5q-129 0 -215 74.5t-86 203.5z" />
    <glyph glyph-name="dotaccent" unicode="&#x2d9;" 
d="M362 1321q0 63 43.5 106t108.5 43t106.5 -41t41.5 -104t-43 -106.5t-108 -43.5t-107 41t-42 105z" />
    <glyph glyph-name="ring" unicode="&#x2da;" 
d="M239 1355q0 107 78.5 176.5t198.5 69.5t194.5 -65.5t74.5 -171.5q0 -105 -78.5 -175.5t-198.5 -70.5t-194.5 66t-74.5 171zM400 1359q0 -51 31 -81.5t81 -30.5t81 30.5t31 82.5q0 51 -30.5 81.5t-81.5 30.5t-81.5 -30.5t-30.5 -82.5z" />
    <glyph glyph-name="ogonek" unicode="&#x2db;" 
d="M505 0h195q-82 -74 -121 -130t-39 -109q0 -73 72 -73q23 0 50.5 7.5t40.5 7.5q28 0 46 -18t18 -47q0 -39 -30 -69q-26 -26 -78.5 -43.5t-119.5 -17.5q-115 0 -176 53t-61 143q0 82 58.5 159t144.5 137z" />
    <glyph glyph-name="tilde" unicode="&#x2dc;" 
d="M368 1270q-27 0 -49 -13t-34.5 -29t-32 -29t-42.5 -13q-34 0 -57 22t-23 61q0 71 73 134.5t179 63.5q47 0 89.5 -16t68.5 -34.5t56 -34.5t55 -16q34 0 58.5 21t47.5 42t52 21q34 0 57 -22t23 -60q0 -71 -73.5 -135t-178.5 -64q-47 0 -90 16t-69 34.5t-56 34.5t-54 16z
" />
    <glyph glyph-name="hungarumlaut" unicode="&#x2dd;" 
d="M152 1276l144 231q19 30 36.5 42.5t44.5 12.5q49 0 89 -34.5t40 -76.5q0 -28 -35 -66l-179 -200q-36 -39 -70 -39q-35 0 -62.5 23t-27.5 54q0 21 20 53zM521 1276l184 221q34 40 71 40q47 0 87.5 -41t40.5 -85q0 -34 -44 -69l-220 -182q-27 -23 -55 -23q-35 0 -62 25.5
t-27 60.5q0 22 25 53z" />
    <glyph glyph-name="uni0312" unicode="&#x312;" 
d="M306 1273q0 59 36 110.5t91 83t115.5 49.5t113.5 18t80 -19t27 -52q0 -26 -17 -43q-18 -18 -86 -38.5t-107 -57.5q17 -22 17 -53q0 -56 -40 -94t-100 -38t-95 36.5t-35 97.5z" />
    <glyph glyph-name="uni0315" unicode="&#x315;" 
d="M389 1261l66 251q11 43 33.5 63t62.5 20q50 0 89.5 -27.5t39.5 -67.5q0 -21 -16 -54l-117 -253q-23 -51 -77 -51q-36 0 -62.5 19.5t-26.5 51.5q0 20 8 48z" />
    <glyph glyph-name="uni0326" unicode="&#x326;" 
d="M456 -235q0 56 40 94t100 38t95 -36.5t35 -97.5q0 -59 -36 -110.5t-91 -83t-115.5 -49.5t-113.5 -18t-80 19t-27 52q0 26 17 43q18 18 86 38.5t107 57.5q-17 22 -17 53z" />
    <glyph glyph-name="Delta" unicode="&#x394;" horiz-adv-x="1296" 
d="M72 220l343 982q34 100 85 141t148 41q96 0 147.5 -41t85.5 -141l343 -982q17 -51 17 -92q0 -61 -33.5 -94.5t-94.5 -33.5h-930q-61 0 -95 33.5t-34 94.5q0 38 18 92zM345 220h592l-239 711l-63 204h-4q-26 -97 -59 -204z" />
    <glyph glyph-name="Delta" unicode="&#x2206;" horiz-adv-x="1296" 
d="M72 220l343 982q34 100 85 141t148 41q96 0 147.5 -41t85.5 -141l343 -982q17 -51 17 -92q0 -61 -33.5 -94.5t-94.5 -33.5h-930q-61 0 -95 33.5t-34 94.5q0 38 18 92zM345 220h592l-239 711l-63 204h-4q-26 -97 -59 -204z" />
    <glyph glyph-name="Omega" unicode="&#x3a9;" horiz-adv-x="1587" 
d="M209 221h216v3q-291 208 -291 535q0 283 185.5 461.5t489.5 178.5q295 0 469.5 -166.5t174.5 -436.5q0 -342 -307 -572v-3h233q43 0 68.5 -28.5t25.5 -81.5q0 -54 -25.5 -82.5t-68.5 -28.5h-389q-46 0 -68 22q-23 23 -23 123v16q0 69 7 95.5t36 53.5q113 98 172 206.5
t59 258.5q0 183 -106.5 294.5t-273.5 111.5t-272.5 -110t-105.5 -292q0 -152 58.5 -261t171.5 -208q29 -27 36 -53t7 -96v-16q0 -99 -22 -123q-22 -22 -68 -22h-389q-43 0 -68.5 28.5t-25.5 82.5q0 53 25.5 81.5t68.5 28.5z" />
    <glyph glyph-name="Omega" unicode="&#x2126;" horiz-adv-x="1587" 
d="M209 221h216v3q-291 208 -291 535q0 283 185.5 461.5t489.5 178.5q295 0 469.5 -166.5t174.5 -436.5q0 -342 -307 -572v-3h233q43 0 68.5 -28.5t25.5 -81.5q0 -54 -25.5 -82.5t-68.5 -28.5h-389q-46 0 -68 22q-23 23 -23 123v16q0 69 7 95.5t36 53.5q113 98 172 206.5
t59 258.5q0 183 -106.5 294.5t-273.5 111.5t-272.5 -110t-105.5 -292q0 -152 58.5 -261t171.5 -208q29 -27 36 -53t7 -96v-16q0 -99 -22 -123q-22 -22 -68 -22h-389q-43 0 -68.5 28.5t-25.5 82.5q0 53 25.5 81.5t68.5 28.5z" />
    <glyph glyph-name="pi" unicode="&#x3c0;" horiz-adv-x="1317" 
d="M213 814h-89q-41 0 -65 26.5t-24 75.5q0 48 24 74.5t65 26.5h1065q41 0 65 -26.5t24 -74.5q0 -49 -24 -75.5t-65 -26.5h-105v-268q0 -185 6.5 -248.5t25.5 -82.5q15 -15 38 -15q10 0 25 1.5t22 1.5q28 0 47.5 -21t19.5 -57q0 -51 -33 -84q-52 -52 -166 -52t-175 61
q-44 44 -63 125.5t-19 276.5v362h-327v-701q0 -120 -136 -120t-136 120v701z" />
    <glyph glyph-name="uni1E02" unicode="&#x1e02;" horiz-adv-x="1247" 
d="M438 207h145q145 0 216.5 55t71.5 147q0 195 -288 195h-145v-397zM438 811h135q126 0 189 50.5t63 134.5q0 175 -249 175h-138v-360zM165 127v1124q0 60 33 93.5t94 33.5h297q264 0 390 -93.5t126 -250.5q0 -111 -58.5 -190t-161.5 -113v-3q125 -21 197 -101.5t72 -204.5
q0 -191 -146.5 -306.5t-438.5 -115.5h-277q-61 0 -94 33.5t-33 93.5zM437 1661q0 64 43.5 107t109.5 43t107.5 -41t41.5 -105t-43.5 -108t-108.5 -44q-66 0 -108 41.5t-42 106.5z" />
    <glyph glyph-name="uni1E03" unicode="&#x1e03;" horiz-adv-x="1204" 
d="M147 183v1179q0 120 136 120t136 -120v-301q0 -71 -9 -154h3q4 5 11 14t33.5 31t57 39t81.5 31t106 14q193 0 305 -128t112 -372q0 -263 -149 -409.5t-420 -146.5q-142 0 -235.5 28.5t-127.5 62.5q-40 40 -40 112zM419 673v-450q6 -4 17.5 -10t51.5 -16t86 -10
q124 0 196 84.5t72 245.5q0 302 -208 302q-40 0 -77 -15t-61 -36.5t-42.5 -43t-26.5 -36.5zM132 1726q0 64 43.5 107t109.5 43t107.5 -41t41.5 -105t-43.5 -108t-108.5 -44q-66 0 -108 41.5t-42 106.5z" />
    <glyph glyph-name="uni1E0A" unicode="&#x1e0a;" horiz-adv-x="1419" 
d="M165 127v1124q0 60 33 93.5t94 33.5h335q340 0 522 -173.5t182 -485.5q0 -337 -194 -528t-539 -191h-306q-61 0 -94 33.5t-33 93.5zM444 215h168q203 0 318 124.5t115 358.5q0 465 -433 465h-168v-948zM508 1661q0 64 43.5 107t109.5 43t107.5 -41t41.5 -105t-43.5 -108
t-108.5 -44q-66 0 -108 41.5t-42 106.5z" />
    <glyph glyph-name="uni1E0B" unicode="&#x1e0b;" horiz-adv-x="1208" 
d="M785 1130v232q0 120 136 120t136 -120v-1259q0 -55 -29 -84t-84 -29q-102 0 -119 97l-9 50h-3q-4 -6 -11.5 -16.5t-35.5 -37.5t-60.5 -47.5t-87.5 -37.5t-116 -17q-193 0 -305.5 128t-112.5 372q0 263 149 409.5t421 146.5q34 0 67 -4t49 -8l15 -4l3 1q-3 51 -3 108z
M785 344v452q-54 32 -156 32q-123 0 -195.5 -84t-72.5 -243q0 -303 209 -303q40 0 77 15t61 36.5t42.5 43t26.5 36.5zM768 1726q0 64 43.5 107t109.5 43t107.5 -41t41.5 -105t-43.5 -108t-108.5 -44q-66 0 -108 41.5t-42 106.5z" />
    <glyph glyph-name="uni1E1E" unicode="&#x1e1e;" horiz-adv-x="1028" 
d="M444 570v-454q0 -59 -35.5 -91t-104.5 -32q-139 0 -139 123v1135q0 60 33 93.5t94 33.5h607q44 0 69 -28t25 -80q0 -53 -25 -81t-69 -28h-455v-376h376q43 0 68 -28t25 -80t-25 -79.5t-68 -27.5h-376zM428 1661q0 64 43.5 107t109.5 43t107.5 -41t41.5 -105t-43.5 -108
t-108.5 -44q-66 0 -108 41.5t-42 106.5z" />
    <glyph glyph-name="uni1E1F" unicode="&#x1e1f;" horiz-adv-x="706" 
d="M193 814h-79q-41 0 -65 26.5t-24 75.5q0 48 24 74.5t65 26.5h79v86q0 182 102 286t279 104q121 0 171 -50q32 -32 32 -85q0 -42 -22 -67t-55 -25q-13 0 -46 10t-66 10q-62 0 -92.5 -41.5t-30.5 -131.5v-96h136q41 0 65 -26.5t24 -74.5q0 -49 -24 -75.5t-65 -26.5h-136
v-701q0 -120 -136 -120t-136 120v701zM344 1726q0 64 43.5 107t109.5 43t107.5 -41t41.5 -105t-43.5 -108t-108.5 -44q-66 0 -108 41.5t-42 106.5z" />
    <glyph glyph-name="uni1E40" unicode="&#x1e40;" horiz-adv-x="1874" 
d="M116 156l110 1039q10 93 55 138q52 52 164 52q95 0 145 -41.5t76 -127.5l224 -742q13 -44 25 -91.5t17 -72.5l6 -26h4q18 92 47 189l225 742q26 87 75.5 128.5t144.5 41.5q108 0 159 -51q45 -44 55 -139l110 -1037q4 -36 4 -56q0 -49 -42 -80.5t-104 -31.5q-66 0 -102 36
q-27 27 -34 110l-66 753q-4 48 -5 100.5t-1 80.5l1 28h-4l-280 -932q-29 -96 -64 -131q-42 -42 -129 -42q-89 0 -131 42q-32 32 -63 131l-281 933h-4q0 -99 -9 -209l-62 -754q-3 -30 -5 -44.5t-9.5 -34t-20.5 -32.5q-35 -35 -97 -35q-58 0 -98.5 29t-40.5 78q0 12 5 59z
M789 1661q0 64 43.5 107t109.5 43t107.5 -41t41.5 -105t-43.5 -108t-108.5 -44q-66 0 -108 41.5t-42 106.5z" />
    <glyph glyph-name="uni1E41" unicode="&#x1e41;" horiz-adv-x="1863" 
d="M147 113v801q0 55 29 84t84 29q104 0 119 -96l8 -51h4l11 16.5t34.5 37.5t59.5 47.5t86 37.5t114 17q224 0 320 -174q4 7 12.5 19t39 42t66 52.5t93.5 41.5t122 19q174 0 274.5 -108.5t100.5 -307.5v-507q0 -120 -136 -120t-136 120v475q0 231 -175 231q-38 0 -74 -15.5
t-59.5 -37.5t-41.5 -44.5t-26 -37.5l-8 -16q0 -4 1.5 -37t1.5 -57v-461q0 -120 -135 -120q-136 0 -136 120v475q0 231 -176 231q-38 0 -72.5 -15t-57.5 -36.5t-41 -43t-26 -36.5l-8 -15v-560q0 -120 -136 -120t-136 120zM795 1321q0 63 43.5 106t108.5 43t106.5 -41
t41.5 -104t-43 -106.5t-108 -43.5t-107 41t-42 105z" />
    <glyph glyph-name="uni1E56" unicode="&#x1e56;" horiz-adv-x="1163" 
d="M442 495v-379q0 -123 -139 -123q-138 0 -138 123v1135q0 60 33 93.5t94 33.5h289q259 0 391.5 -113t132.5 -309q0 -214 -140 -337.5t-406 -123.5h-117zM442 705h132q118 0 183.5 62t65.5 172q0 226 -256 226h-125v-460zM426 1661q0 64 43.5 107t109.5 43t107.5 -41
t41.5 -105t-43.5 -108t-108.5 -44q-66 0 -108 41.5t-42 106.5z" />
    <glyph glyph-name="uni1E57" unicode="&#x1e57;" horiz-adv-x="1203" 
d="M147 -358v1272q0 55 29 84t84 29q105 0 119 -96l8 -51h4q4 6 11.5 16.5t35 37.5t60.5 47.5t88 37.5t116 17q193 0 305 -128t112 -372q0 -263 -149 -409.5t-420 -146.5q-34 0 -66.5 4t-48.5 8l-16 4l-3 -1q3 -51 3 -108v-245q0 -120 -136 -120t-136 120zM419 673v-454
q54 -32 155 -32q124 0 196 84.5t72 245.5q0 302 -208 302q-40 0 -77 -15t-61 -36.5t-42.5 -43t-26.5 -36.5zM451 1321q0 63 43.5 106t108.5 43t106.5 -41t41.5 -104t-43 -106.5t-108 -43.5t-107 41t-42 105z" />
    <glyph glyph-name="uni1E60" unicode="&#x1e60;" horiz-adv-x="1120" 
d="M110 991q0 181 131 293.5t372 112.5q115 0 198 -26t119 -62q37 -37 37 -90q0 -45 -26.5 -70.5t-69.5 -25.5q-25 0 -60 14.5t-88 29t-123 14.5q-106 0 -159.5 -42.5t-53.5 -114.5q0 -43 21.5 -75.5t58.5 -54.5t84.5 -40t100 -36.5t105 -39.5t100 -52.5t84.5 -72.5
t58.5 -103t21.5 -140q0 -193 -137 -310.5t-391 -117.5q-128 0 -217.5 27t-125.5 63q-39 39 -39 92q0 46 26.5 72t69.5 26q21 0 48 -10t53.5 -21.5t79.5 -21.5t118 -10q117 0 177 49t60 130q0 58 -35 99.5t-90.5 67t-123.5 48t-135.5 52.5t-123 70.5t-90.5 110.5t-35 165z
M401 1661q0 64 43.5 107t109.5 43t107.5 -41t41.5 -105t-43.5 -108t-108.5 -44q-66 0 -108 41.5t-42 106.5z" />
    <glyph glyph-name="uni1E61" unicode="&#x1e61;" horiz-adv-x="952" 
d="M97 718q0 141 110 229.5t316 88.5q102 0 169 -20.5t96 -49.5q32 -32 32 -83q0 -38 -24 -62t-61 -24q-18 0 -89 21t-136 21q-76 0 -112 -24.5t-36 -64.5q0 -34 28 -58t72.5 -40t98.5 -31t108.5 -38t99 -54.5t72.5 -86t28 -127.5q0 -147 -116 -240.5t-332 -93.5t-291 75
q-32 32 -32 83q0 39 23.5 63.5t61.5 24.5q19 0 53.5 -12t85.5 -24t112 -12q87 0 128 28t41 75q0 31 -21.5 55t-57.5 38t-81.5 29.5t-92.5 29.5t-92.5 38t-81.5 54t-57.5 79.5t-21.5 112.5zM323 1321q0 63 43.5 106t108.5 43t106.5 -41t41.5 -104t-43 -106.5t-108 -43.5
t-107 41t-42 105z" />
    <glyph glyph-name="uni1E6A" unicode="&#x1e6a;" horiz-adv-x="1144" 
d="M433 1154h-315q-46 0 -71.5 28.5t-25.5 83.5t25.5 83.5t71.5 28.5h908q46 0 71.5 -28.5t25.5 -83.5t-25.5 -83.5t-71.5 -28.5h-315v-1038q0 -123 -139 -123t-139 123v1038zM425 1661q0 64 43.5 107t109.5 43t107.5 -41t41.5 -105t-43.5 -108t-108.5 -44q-66 0 -108 41.5
t-42 106.5z" />
    <glyph glyph-name="uni1E6B" unicode="&#x1e6b;" horiz-adv-x="754" 
d="M190 814h-79q-41 0 -65 26.5t-24 75.5q0 48 24 74.5t65 26.5h88l32 169q20 111 123 111q52 0 80 -28.5t28 -82.5v-169h169q41 0 65 -26.5t24 -74.5q0 -49 -24 -75.5t-65 -26.5h-169v-481q0 -69 24 -100t74 -31q27 0 56 7t39 7q32 0 52.5 -22.5t20.5 -58.5q0 -49 -35 -84
q-25 -25 -77.5 -43.5t-129.5 -18.5q-151 0 -223.5 72t-72.5 222v531zM207 1556q0 64 43.5 107t109.5 43t107.5 -41t41.5 -105t-43.5 -108t-108.5 -44q-66 0 -108 41.5t-42 106.5z" />
    <glyph glyph-name="Wgrave" unicode="&#x1e80;" horiz-adv-x="1960" 
d="M332 172l-258 1019q-13 53 -13 72q0 57 47 91t105 34q57 0 90 -33q12 -12 20.5 -29.5t11.5 -29.5t10 -41l188 -788q11 -48 20 -98t12 -76l3 -26h4q11 91 38 201l186 766q20 83 66.5 118.5t126.5 35.5t126.5 -36t66.5 -119l183 -763q11 -47 21 -98t14 -79l5 -28h4
q14 102 37 203l177 786q18 79 39 100q34 34 92 34q56 0 100 -32t44 -84q0 -19 -13 -71l-260 -1029q-23 -91 -60 -128q-51 -51 -159 -51q-103 0 -154 51q-33 33 -57 128l-179 735q-10 40 -19 88.5t-13 76.5l-4 28h-4q-13 -102 -35 -194l-179 -734q-24 -95 -57 -128
q-51 -51 -155 -51q-107 0 -158 51q-37 37 -60 128zM981 1495l-265 149q-55 31 -55 76q0 50 38 97t86 47q30 0 60 -26l237 -196q39 -32 39 -64q0 -37 -26.5 -67.5t-63.5 -30.5q-22 0 -50 15z" />
    <glyph glyph-name="wgrave" unicode="&#x1e81;" horiz-adv-x="1683" 
d="M273 171l-194 659q-15 51 -15 79q0 54 47.5 86t101.5 32q57 0 88 -31q9 -9 17 -26t11.5 -30t12.5 -45l134 -502q10 -39 18 -77t10 -56l3 -19h4q9 66 32 152l126 476q23 86 63.5 122t118.5 36t118 -36t63 -122l127 -476q10 -38 18.5 -76t12.5 -57l3 -19h4q11 67 32 152
l125 503q1 3 3.5 13.5t3.5 13.5t3 11.5t3 11.5t3.5 10t4 10t3.5 8t4.5 8.5l5 7t5.5 6.5q31 31 87 31q54 0 96.5 -30t42.5 -80q0 -26 -15 -77l-195 -667q-27 -95 -64 -132q-48 -48 -146 -48t-144 46q-34 34 -62 139l-115 415q-11 40 -19.5 81.5t-11.5 63.5l-3 21h-4
q-8 -75 -33 -166l-116 -415q-29 -105 -62 -138q-47 -47 -145 -47q-100 0 -148 48q-36 36 -63 130zM830 1164l-208 179q-2 2 -10 8.5t-10.5 9l-9 9t-9 11t-6 11t-5 13.5t-1.5 15q0 49 42 89t89 40q41 0 76 -45l174 -216q1 -1 5 -6t5.5 -6.5t4.5 -6t4 -6.5t3.5 -6t3.5 -6.5
t2 -6.5t1.5 -7.5t0.5 -7.5q0 -35 -27.5 -62.5t-65.5 -27.5q-30 0 -59 25z" />
    <glyph glyph-name="Wacute" unicode="&#x1e82;" horiz-adv-x="1960" 
d="M332 172l-258 1019q-13 53 -13 72q0 57 47 91t105 34q57 0 90 -33q12 -12 20.5 -29.5t11.5 -29.5t10 -41l188 -788q11 -48 20 -98t12 -76l3 -26h4q11 91 38 201l186 766q20 83 66.5 118.5t126.5 35.5t126.5 -36t66.5 -119l183 -763q11 -47 21 -98t14 -79l5 -28h4
q14 102 37 203l177 786q18 79 39 100q34 34 92 34q56 0 100 -32t44 -84q0 -19 -13 -71l-260 -1029q-23 -91 -60 -128q-51 -51 -159 -51q-103 0 -154 51q-33 33 -57 128l-179 735q-10 40 -19 88.5t-13 76.5l-4 28h-4q-13 -102 -35 -194l-179 -734q-24 -95 -57 -128
q-51 -51 -155 -51q-107 0 -158 51q-37 37 -60 128zM874 1642l237 196q30 26 60 26q48 0 86 -47t38 -97q0 -45 -55 -76l-265 -149q-28 -15 -50 -15q-37 0 -63.5 30.5t-26.5 67.5q0 32 39 64z" />
    <glyph glyph-name="wacute" unicode="&#x1e83;" horiz-adv-x="1683" 
d="M273 171l-194 659q-15 51 -15 79q0 54 47.5 86t101.5 32q57 0 88 -31q9 -9 17 -26t11.5 -30t12.5 -45l134 -502q10 -39 18 -77t10 -56l3 -19h4q9 66 32 152l126 476q23 86 63.5 122t118.5 36t118 -36t63 -122l127 -476q10 -38 18.5 -76t12.5 -57l3 -19h4q11 67 32 152
l125 503q1 3 3.5 13.5t3.5 13.5t3 11.5t3 11.5t3.5 10t4 10t3.5 8t4.5 8.5l5 7t5.5 6.5q31 31 87 31q54 0 96.5 -30t42.5 -80q0 -26 -15 -77l-195 -667q-27 -95 -64 -132q-48 -48 -146 -48t-144 46q-34 34 -62 139l-115 415q-11 40 -19.5 81.5t-11.5 63.5l-3 21h-4
q-8 -75 -33 -166l-116 -415q-29 -105 -62 -138q-47 -47 -145 -47q-100 0 -148 48q-36 36 -63 130zM723 1288l174 216q35 45 76 45q47 0 89 -40t42 -89q0 -8 -1.5 -15t-5 -13.5t-6 -11t-9 -11l-9 -9t-10.5 -9t-10 -8.5l-208 -179q-29 -25 -59 -25q-38 0 -65.5 27.5
t-27.5 62.5q0 11 5.5 23t8.5 16t16 20z" />
    <glyph glyph-name="Wdieresis" unicode="&#x1e84;" horiz-adv-x="1960" 
d="M332 172l-258 1019q-13 53 -13 72q0 57 47 91t105 34q57 0 90 -33q12 -12 20.5 -29.5t11.5 -29.5t10 -41l188 -788q11 -48 20 -98t12 -76l3 -26h4q11 91 38 201l186 766q20 83 66.5 118.5t126.5 35.5t126.5 -36t66.5 -119l183 -763q11 -47 21 -98t14 -79l5 -28h4
q14 102 37 203l177 786q18 79 39 100q34 34 92 34q56 0 100 -32t44 -84q0 -19 -13 -71l-260 -1029q-23 -91 -60 -128q-51 -51 -159 -51q-103 0 -154 51q-33 33 -57 128l-179 735q-10 40 -19 88.5t-13 76.5l-4 28h-4q-13 -102 -35 -194l-179 -734q-24 -95 -57 -128
q-51 -51 -155 -51q-107 0 -158 51q-37 37 -60 128zM602 1656q0 65 43.5 108t109.5 43q67 0 108.5 -41t41.5 -106q0 -64 -43.5 -108t-109.5 -44t-108 42t-42 106zM1059 1656q0 65 44 108t110 43t107.5 -41t41.5 -106q0 -64 -43.5 -108t-108.5 -44q-66 0 -108.5 42t-42.5 106z
" />
    <glyph glyph-name="wdieresis" unicode="&#x1e85;" horiz-adv-x="1683" 
d="M273 171l-194 659q-15 51 -15 79q0 54 47.5 86t101.5 32q57 0 88 -31q9 -9 17 -26t11.5 -30t12.5 -45l134 -502q10 -39 18 -77t10 -56l3 -19h4q9 66 32 152l126 476q23 86 63.5 122t118.5 36t118 -36t63 -122l127 -476q10 -38 18.5 -76t12.5 -57l3 -19h4q11 67 32 152
l125 503q1 3 3.5 13.5t3.5 13.5t3 11.5t3 11.5t3.5 10t4 10t3.5 8t4.5 8.5l5 7t5.5 6.5q31 31 87 31q54 0 96.5 -30t42.5 -80q0 -26 -15 -77l-195 -667q-27 -95 -64 -132q-48 -48 -146 -48t-144 46q-34 34 -62 139l-115 415q-11 40 -19.5 81.5t-11.5 63.5l-3 21h-4
q-8 -75 -33 -166l-116 -415q-29 -105 -62 -138q-47 -47 -145 -47q-100 0 -148 48q-36 36 -63 130zM481 1315q0 63 43.5 106t108.5 43q66 0 107.5 -41t41.5 -104t-43 -106.5t-109 -43.5q-65 0 -107 41t-42 105zM912 1315q0 63 43.5 106t109.5 43q65 0 106.5 -41t41.5 -104
t-43 -106.5t-108 -43.5q-66 0 -108 41t-42 105z" />
    <glyph glyph-name="uni1E9E" unicode="&#x1e9e;" horiz-adv-x="1495" 
d="M444 1161v-1045q0 -59 -35.5 -91t-104.5 -32q-139 0 -139 123v1135q0 60 33 93.5t94 33.5h824q80 0 120 -34.5t40 -98.5q0 -39 -18 -72.5t-64 -84.5l-230 -254q197 -15 322 -119.5t125 -282.5q0 -203 -135 -326.5t-372 -123.5q-205 0 -284 79q-38 38 -38 90q0 46 27 72
t69 26q26 0 92.5 -25t136.5 -25q100 0 159 57.5t59 153.5q0 92 -70.5 145.5t-218.5 53.5h-56q-65 0 -100.5 36t-35.5 95q0 65 65 137l253 284h-518z" />
    <glyph glyph-name="Ygrave" unicode="&#x1ef2;" horiz-adv-x="1149" 
d="M432 535l-361 604q-17 28 -23.5 41t-13 31.5t-6.5 35.5q0 61 50 101t106 40q49 0 81 -32q18 -18 52 -79l216 -384l53 -107h4q22 57 51 111l204 379q34 64 50 80q32 32 79 32q56 0 101.5 -38t45.5 -92q0 -16 -6 -34t-12 -29t-23 -40l-369 -620v-419q0 -123 -140 -123
q-139 0 -139 123v419zM554 1495l-265 149q-55 31 -55 76q0 50 38 97t86 47q30 0 60 -26l237 -196q39 -32 39 -64q0 -37 -26.5 -67.5t-63.5 -30.5q-22 0 -50 15z" />
    <glyph glyph-name="ygrave" unicode="&#x1ef3;" horiz-adv-x="1061" 
d="M381 -52l-318 872q-20 55 -20 82q0 56 47.5 90.5t103.5 34.5q52 0 82 -33q17 -18 41 -89l176 -527q12 -35 22.5 -74t14.5 -60l5 -22h4q17 78 42 156l173 533q22 67 39 85q28 31 83 31q54 0 98.5 -31.5t44.5 -83.5q0 -26 -18 -75l-259 -700q-122 -330 -265.5 -475
t-350.5 -145q-105 0 -152 47q-33 33 -33 83q0 41 25 66t68 25q19 0 47.5 -3.5t46.5 -3.5q80 0 141.5 54t111.5 163zM485 1164l-208 179q-2 2 -10 8.5t-10.5 9l-9 9t-9 11t-6 11t-5 13.5t-1.5 15q0 49 42 89t89 40q41 0 76 -45l174 -216q1 -1 5 -6t5.5 -6.5t4.5 -6t4 -6.5
t3.5 -6t3.5 -6.5t2 -6.5t1.5 -7.5t0.5 -7.5q0 -35 -27.5 -62.5t-65.5 -27.5q-30 0 -59 25z" />
    <glyph glyph-name="endash" unicode="&#x2013;" horiz-adv-x="1168" 
d="M91 653h986q43 0 67 -27t24 -78q0 -50 -24 -77.5t-67 -27.5h-986q-43 0 -67 27.5t-24 77.5q0 51 24 78t67 27z" />
    <glyph glyph-name="emdash" unicode="&#x2014;" horiz-adv-x="2048" 
d="M244 653h1560q43 0 66.5 -27t23.5 -78t-24 -78t-66 -27h-1560q-42 0 -66 27t-24 78t23.5 78t66.5 27z" />
    <glyph glyph-name="uni2015" unicode="&#x2015;" horiz-adv-x="2048" 
d="M244 653h1560q43 0 66.5 -27t23.5 -78t-24 -78t-66 -27h-1560q-42 0 -66 27t-24 78t23.5 78t66.5 27z" />
    <glyph glyph-name="quoteleft" unicode="&#x2018;" horiz-adv-x="600" 
d="M132 1032q0 176 125 338q97 125 189 125q37 0 58 -20t21 -52q0 -21 -16 -44t-37.5 -45t-49 -68.5t-44.5 -104.5q38 -17 65 -54.5t27 -95.5q0 -73 -49.5 -122t-123.5 -49q-75 0 -120 51.5t-45 140.5z" />
    <glyph glyph-name="quoteright" unicode="&#x2019;" horiz-adv-x="600" 
d="M130 1324q0 73 49 122t123 49q76 0 121 -51.5t45 -140.5q0 -174 -125 -338q-96 -125 -189 -125q-37 0 -58 19.5t-21 51.5q0 21 16 44.5t37.5 45.5t48.5 68.5t44 104.5q-38 17 -64.5 54.5t-26.5 95.5z" />
    <glyph glyph-name="quotesinglbase" unicode="&#x201a;" horiz-adv-x="600" 
d="M130 151q0 73 49.5 122t122.5 49q76 0 121 -51.5t45 -140.5q0 -174 -125 -338q-96 -125 -189 -125q-37 0 -58 19.5t-21 51.5q0 21 16 44t37.5 45t48.5 69t44 105q-38 17 -64.5 54.5t-26.5 95.5z" />
    <glyph glyph-name="quotedblleft" unicode="&#x201c;" horiz-adv-x="1074" 
d="M605 1032q0 174 125 338q97 125 189 125q37 0 58.5 -20t21.5 -52q0 -21 -16 -44t-37.5 -45t-49 -68.5t-44.5 -104.5q38 -17 64.5 -54.5t26.5 -95.5q0 -74 -49 -122.5t-123 -48.5q-75 0 -120.5 51.5t-45.5 140.5zM132 1032q0 176 125 338q97 125 189 125q37 0 58 -20
t21 -52q0 -21 -16 -44t-37.5 -45t-49 -68.5t-44.5 -104.5q38 -17 65 -54.5t27 -95.5q0 -73 -49.5 -122t-123.5 -49q-75 0 -120 51.5t-45 140.5z" />
    <glyph glyph-name="quotedblright" unicode="&#x201d;" horiz-adv-x="1074" 
d="M130 1324q0 73 49 122t123 49q76 0 121 -51.5t45 -140.5q0 -174 -125 -338q-96 -125 -189 -125q-37 0 -58 19.5t-21 51.5q0 21 16 44.5t37.5 45.5t48.5 68.5t44 104.5q-38 17 -64.5 54.5t-26.5 95.5zM604 1324q0 74 49 122.5t123 48.5q76 0 121 -51.5t45 -140.5
q0 -174 -125 -338q-96 -125 -189 -125q-37 0 -58 19.5t-21 51.5q0 21 16 44.5t37.5 45.5t48.5 68.5t44 104.5q-38 17 -64.5 54.5t-26.5 95.5z" />
    <glyph glyph-name="quotedblbase" unicode="&#x201e;" horiz-adv-x="1074" 
d="M130 151q0 73 49.5 122t122.5 49q76 0 121 -51.5t45 -140.5q0 -174 -125 -338q-96 -125 -189 -125q-37 0 -58 19.5t-21 51.5q0 21 16 44t37.5 45t48.5 69t44 105q-38 17 -64.5 54.5t-26.5 95.5zM604 151q0 73 49 122t123 49q76 0 121 -51.5t45 -140.5q0 -174 -125 -338
q-96 -125 -189 -125q-37 0 -58 19.5t-21 51.5q0 17 10 34t26.5 36t35 42.5t39.5 63t35 87.5q-38 17 -64.5 54.5t-26.5 95.5z" />
    <glyph glyph-name="dagger" unicode="&#x2020;" horiz-adv-x="1165" 
d="M448 739h-271q-46 0 -72 29t-26 84t26 83.5t72 28.5h271v315q0 58 34 89t101 31q66 0 100.5 -31t34.5 -89v-315h270q47 0 73 -28.5t26 -83.5t-26 -84t-73 -29h-270v-947q0 -120 -135 -120t-135 120v947z" />
    <glyph glyph-name="daggerdbl" unicode="&#x2021;" horiz-adv-x="1241" 
d="M486 767h-271q-47 0 -73 29t-26 84t26 83.5t73 28.5h271v287q0 58 33.5 89t100.5 31t101 -31t34 -89v-287h271q47 0 73 -28.5t26 -83.5t-26 -84t-73 -29h-271v-448h271q47 0 73 -29t26 -84t-26 -83.5t-73 -28.5h-271v-302q0 -120 -135 -120q-134 0 -134 120v302h-271
q-47 0 -73 29t-26 84t26 83.5t73 28.5h271v448z" />
    <glyph glyph-name="bullet" unicode="&#x2022;" horiz-adv-x="967" 
d="M197 701q0 125 81.5 207t206.5 82t205 -80t80 -205t-82 -207t-207 -82t-204.5 80t-79.5 205z" />
    <glyph glyph-name="ellipsis" unicode="&#x2026;" horiz-adv-x="1778" 
d="M132 151q0 76 50 126t126 50q75 0 122.5 -48t47.5 -124q0 -75 -49.5 -125t-125.5 -50q-75 0 -123 48t-48 123zM716 151q0 76 50 126t125 50q76 0 124.5 -48t48.5 -124q0 -75 -50.5 -125t-126.5 -50q-75 0 -123 48t-48 123zM1299 151q0 76 50.5 126t125.5 50q76 0 124 -48
t48 -124q0 -75 -50 -125t-126 -50t-124 48t-48 123z" />
    <glyph glyph-name="perthousand" unicode="&#x2030;" horiz-adv-x="2800" 
d="M535 119l734 1229q29 50 75 50q37 0 67 -25t30 -60q0 -21 -19 -53l-734 -1229q-29 -50 -75 -50q-37 0 -67 24.5t-30 59.5q0 22 19 54zM95 995q0 188 100 294t262 106q165 0 256.5 -97t91.5 -285q0 -187 -100 -293.5t-263 -106.5q-164 0 -255.5 97t-91.5 285zM310 1005
q0 -121 40 -176.5t101 -55.5t100 55t39 175q0 122 -40 177.5t-102 55.5q-60 0 -99 -55.5t-39 -175.5zM1151 365q0 188 100 294t262 106q165 0 256.5 -97t91.5 -285q0 -187 -100 -293.5t-263 -106.5q-164 0 -255.5 97t-91.5 285zM1366 375q0 -121 40 -176.5t101 -55.5t100 55
t39 175q0 122 -40 177.5t-102 55.5q-60 0 -99 -55.5t-39 -175.5zM1995 365q0 188 100 294t262 106q165 0 256.5 -97t91.5 -285q0 -187 -100 -293.5t-263 -106.5q-164 0 -255.5 97t-91.5 285zM2210 375q0 -121 40 -176.5t101 -55.5t100 55t39 175q0 122 -40 177.5t-102 55.5
q-60 0 -99 -55.5t-39 -175.5z" />
    <glyph glyph-name="guilsinglleft" unicode="&#x2039;" horiz-adv-x="736" 
d="M363 514l242 -280q36 -42 36 -76q0 -45 -36.5 -78t-84.5 -33q-46 0 -94 51l-292 308q-47 49 -47 102q0 52 46 103l295 310q49 52 91 52q47 0 82.5 -32.5t35.5 -76.5q0 -33 -37 -77z" />
    <glyph glyph-name="guilsinglright" unicode="&#x203a;" horiz-adv-x="736" 
d="M372 503l-242 280q-36 44 -36 76q0 45 37 78t85 33q46 0 94 -51l292 -308q47 -50 47 -102q0 -53 -47 -103l-295 -310q-24 -26 -44.5 -39t-46.5 -13q-47 0 -82.5 32.5t-35.5 76.5q0 34 38 77z" />
    <glyph glyph-name="fraction" unicode="&#x2044;" horiz-adv-x="989" 
d="M51 119l734 1229q29 50 75 50q37 0 67 -25t30 -60q0 -21 -19 -53l-734 -1229q-29 -50 -75 -50q-37 0 -67 24.5t-30 59.5q0 22 19 54z" />
    <glyph glyph-name="zero.superior" unicode="&#x2070;" horiz-adv-x="900" 
d="M95 995q0 188 100 294t262 106q165 0 256.5 -97t91.5 -285q0 -187 -100 -293.5t-263 -106.5q-164 0 -255.5 97t-91.5 285zM310 1005q0 -121 40 -176.5t101 -55.5t100 55t39 175q0 122 -40 177.5t-102 55.5q-60 0 -99 -55.5t-39 -175.5z" />
    </font>
</defs>
</svg>
